<?xml version="1.0" standalone="no"?>
<!DOCTYPE svg PUBLIC "-//W3C//DTD SVG 1.1//EN" "http://www.w3.org/Graphics/SVG/1.1/DTD/svg11.dtd" >
<svg xmlns="http://www.w3.org/2000/svg">
<metadata></metadata>
<defs>
<font id="sf_arch_rivalregular" horiz-adv-x="1067" >
<font-face units-per-em="2048" ascent="1638" descent="-410" />
<missing-glyph horiz-adv-x="602" />
<glyph horiz-adv-x="2048" />
<glyph horiz-adv-x="2048" />
<glyph unicode="&#xd;" horiz-adv-x="1024" />
<glyph unicode=" "  horiz-adv-x="602" />
<glyph unicode="&#x09;" horiz-adv-x="602" />
<glyph unicode="&#xa0;" horiz-adv-x="602" />
<glyph unicode="!" horiz-adv-x="555" d="M483 1263q0 -75 -34 -248q-27 -126 -55 -252q-17 -101 -63 -297q-31 -101 -101 -101q-41 0 -70 30t-29 71q0 128 53 421q57 306 103 405q34 73 97 73q41 0 70 -30.5t29 -71.5zM299 126q0 -51 -37 -88.5t-88 -37.5q-39 0 -70 28t-31 68q0 44 32.5 94.5t75.5 50.5 q44 0 81 -36t37 -79z" />
<glyph unicode="&#x22;" horiz-adv-x="964" d="M775 1263q0 -179 -55 -311q-31 -73 -95 -73q-43 0 -76.5 29t-33.5 72q0 82 50 276q26 103 106 103q39 0 71.5 -28.5t32.5 -67.5zM415 975q0 -40 -31 -69t-72 -29q-114 0 -114 386q0 44 30.5 73t75.5 29q44 0 74 -29t30 -75t3.5 -142.5t3.5 -143.5z" />
<glyph unicode="#" horiz-adv-x="1551" d="M1446 980q0 -43 -31 -74.5t-74 -31.5q-37 0 -114 2.5t-113 2.5v-205q28 0 103 2q61 2 99 2q44 0 73 -31t29 -75q0 -45 -29 -74.5t-263 -29.5q11 -250 11 -217q0 -39 -32 -70t-71 -31q-87 0 -106 104q-5 29 -5 210q-94 -1 -266 -1q0 -72 -12 -209q-17 -104 -102 -104 q-43 0 -73.5 31t-30.5 73q0 11 12 197q-21 -2 -108 -11q-67 -7 -107 -7t-69 33.5t-29 72.5q0 86 104 104q11 2 221 2q3 80 3 202q-283 -23 -271 -23q-40 0 -69 32.5t-29 73.5q0 85 103 104q54 10 138 14q128 5 138 5v17q0 33 -2.5 97t-2.5 96q0 43 31.5 72.5t74.5 29.5 q107 0 107 -298q74 6 219 6q0 28 -4 99q-3 57 -3 91q0 43 30.5 72.5t73.5 29.5q82 0 103 -100q5 -29 5 -178h158q180 0 180 -107zM913 671v201q-148 -7 -234 -7q-1 -70 -1 -198q75 4 235 4z" />
<glyph unicode="$" horiz-adv-x="1164" d="M1062 1033q0 -43 -33.5 -77t-76.5 -34q-12 0 -42 23q-43 33 -65 46.5t-96 15.5q-12 -131 -19 -207q325 -109 325 -308q0 -246 -393 -274q-13 -121 -20 -139q-26 -79 -103 -79q-100 0 -100 123q0 27 13 94q-126 5 -158 8q-98 11 -154 33q-77 30 -77 99q0 42 31 72t73 30 q48 0 140 -18t173 -18q18 147 25 226q-360 95 -360 266q0 126 143 206q105 58 258 84q4 82 17 111q24 49 94 49q41 0 72.5 -29t31.5 -68q0 -24 -2 -55q96 -10 185 -51q118 -54 118 -129zM532 992q-126 -31 -163 -67q66 -38 155 -63q3 48 8 130zM850 478q0 56 -142 111 l-19 -161h6q155 0 155 50z" />
<glyph unicode="%" horiz-adv-x="1838" d="M1703 355q0 -145 -102.5 -250t-247.5 -105q-134 0 -227 75q-100 80 -100 212q0 138 104 253t240 115q123 0 226 -87q107 -92 107 -213zM1338 1263q0 -19 -14 -53q-46 -116 -143 -283q-142 -243 -160 -277q-89 -193 -280 -571q-45 -79 -98 -79q-41 0 -74 31.5t-33 72.5 q0 68 399 823q26 48 147 280q19 37 63 109q38 49 89 49q43 0 73.5 -29.5t30.5 -72.5zM809 1021q0 -145 -99 -249.5t-244 -104.5q-133 0 -234 84q-106 89 -106 218q0 113 96 250q102 146 210 146q160 0 268.5 -93.5t108.5 -250.5zM1488 314q0 55 -38.5 96t-90.5 41 q-53 0 -92.5 -43t-39.5 -96t38.5 -92t91.5 -39q56 0 93.5 38.5t37.5 94.5zM601 1022q0 53 -39.5 90t-92.5 37q-70 0 -105 -62q-29 -51 -29 -126q0 -43 42 -67q34 -20 80 -20q60 0 102 44.5t42 103.5z" />
<glyph unicode="&#x26;" horiz-adv-x="947" d="M865 1012q0 -43 -31.5 -75t-74.5 -32q-42 0 -123 17.5t-124 17.5q-108 0 -108 -92q0 -53 77 -71q70 -14 140 -29q77 -28 77 -101q0 -97 -162 -97q-21 0 -63.5 2.5t-62.5 2.5q-99 0 -99 -75q0 -52 49 -76q60 -29 307 -29q45 0 74 -30.5t29 -74.5q0 -45 -29 -74t-74 -29 q-70 0 -117 2q-6 -60 -11 -120q-15 -49 -100 -49q-101 0 -101 125q0 23 7 68q-266 54 -266 242q0 150 150 241q-67 54 -67 133q0 109 96 198q82 78 198 111q12 247 129 247q41 0 72 -31.5t31 -72.5q0 -3 -19 -123q196 -15 196 -126z" />
<glyph unicode="'" horiz-adv-x="655" d="M428 975q0 -40 -30.5 -69t-71.5 -29q-114 0 -114 386q0 44 30.5 73t74.5 29q45 0 75 -29t30 -75t3 -142.5t3 -143.5z" />
<glyph unicode="(" horiz-adv-x="628" d="M531 1266q0 -12 -62 -131q-66 -135 -73 -152q-67 -172 -67 -445q0 -135 75 -410q6 -19 6 -27q0 -41 -32 -71t-73 -30q-97 0 -146 225q-33 150 -33 306q0 442 171 723q67 111 133 111q41 0 71 -29t30 -70z" />
<glyph unicode=")" horiz-adv-x="631" d="M497 841q0 -442 -171 -730q-65 -111 -130 -111q-41 0 -72.5 29t-31.5 70q0 12 38 75q25 41 49 80q116 209 116 587q0 118 -44 273q-33 115 -33 149q0 41 32 71.5t73 30.5q99 0 145 -216q29 -140 29 -308z" />
<glyph unicode="*" horiz-adv-x="1369" d="M1176 519q0 -43 -32.5 -73t-75.5 -30q-20 0 -47 16q-12 7 -103 73q-46 33 -140 99v-159q0 -44 -30.5 -72t-75.5 -28q-44 0 -74 28t-30 72v227q-63 -52 -196 -157q-39 -29 -72 -29q-42 0 -75.5 32.5t-33.5 75.5q0 73 260 251q-86 66 -106 83q-58 50 -96 94q-31 36 -31 69 q0 42 33.5 74.5t76.5 32.5q32 0 68 -27q55 -50 167 -145q-12 245 -12 244q0 39 33.5 67t72.5 28q84 0 104 -102q12 -55 12 -213q63 39 125 80q87 54 123 54q42 0 73.5 -30.5t31.5 -71.5q0 -51 -49.5 -92t-125.5 -85q-65 -38 -132 -74q108 -66 307 -218q50 -45 50 -94z" />
<glyph unicode="+" horiz-adv-x="976" d="M925 529q0 -101 -102 -101q-12 0 -34.5 2t-34.5 2h-160q0 -17 2 -43v-37q0 -145 -104 -145q-76 0 -98 63q-10 32 -10 143q-138 -9 -225 -9q-45 0 -73 29.5t-28 73.5t28 75t73 31q80 0 218 8q-2 22 -10 96q-7 60 -7 97q0 39 33.5 69t72.5 30q80 0 104 -106q5 -24 15 -174 q98 5 169 5q82 0 116 -15q55 -24 55 -94z" />
<glyph unicode="," horiz-adv-x="531" d="M399 126q0 -95 -49 -205q-60 -133 -142 -133q-42 0 -72 32.5t-30 75.5q0 22 22 63q17 29 34 60q9 17 27 107q23 101 108 101q44 0 73 -28t29 -73z" />
<glyph unicode="-" horiz-adv-x="1072" d="M877 567q0 -45 -28 -74.5t-72 -29.5q-65 0 -196.5 -8t-196.5 -8q-195 0 -195 111q0 39 29 71.5t69 32.5q22 0 64 -2.5t64 -2.5q59 0 180.5 7.5t181.5 7.5q44 0 72 -30.5t28 -74.5z" />
<glyph unicode="." horiz-adv-x="563" d="M389 128q0 -51 -34 -89.5t-85 -38.5q-50 0 -91.5 35t-41.5 84q0 47 49.5 91t95.5 44q107 0 107 -126z" />
<glyph unicode="/" horiz-adv-x="647" d="M596 1263q0 -44 -160.5 -589.5t-189.5 -601.5q-38 -72 -94 -72q-39 0 -71.5 26.5t-32.5 65.5q0 50 53 231q71 250 271 894q7 24 26 72q35 76 99 76q39 0 69 -31.5t30 -70.5z" />
<glyph unicode="0" horiz-adv-x="1386" d="M1184 770q0 -267 -145 -502q-167 -268 -418 -268q-213 0 -327 193q-94 160 -94 389q0 254 107 490q135 293 359 293q249 0 389 -177q129 -162 129 -418zM983 749q0 167 -82 284q-94 133 -254 133q-125 -58 -193 -256q-53 -157 -53 -328q0 -135 48 -242q63 -139 181 -139 q129 0 247 214q106 191 106 334z" />
<glyph unicode="1" horiz-adv-x="840" d="M631 1266q0 46 0 -735q-25 -120 -25 -239q-10 -178 -29 -220q-31 -72 -99 -72q-43 0 -70 29t-27 72q0 3 3 24q24 133 24 317q2 -46 2 317v328q-75 -49 -115 -49q-41 0 -70 29t-29 70q0 46 51 87q45 36 137 85q104 56 143 56q104 0 104 -99z" />
<glyph unicode="2" horiz-adv-x="1176" d="M998 1140q0 -136 -151 -314q-72 -84 -262 -254q-256 -231 -256 -316q0 -55 96 -55q111 0 266 31q164 33 212 33q37 0 65.5 -32t28.5 -71q0 -75 -101 -99q-19 -5 -118 -19q-89 -13 -176 -29q-104 -15 -177 -15q-306 0 -306 227q0 140 169 333q69 78 284.5 277t215.5 283 q0 44 -69 44q-93 0 -258 -77q-16 -78 -92 -78q-45 0 -74 28t-29 72q0 122 176 197q140 59 280 59q118 0 191 -53q85 -59 85 -172z" />
<glyph unicode="3" horiz-adv-x="1190" d="M1029 1019q0 -205 -230 -335q90 -54 144.5 -145.5t54.5 -193.5q0 -168 -148 -263q-128 -82 -306 -82q-93 0 -194 29q-118 34 -167 92q-31 36 -31 70q0 41 28 71t69 30q26 0 75 -29q103 -60 203 -60q82 0 162 29q108 36 108 103q0 98 -101 162q-53 34 -187 78 q-53 17 -70 31q-29 24 -29 70q0 66 68 95q61 17 123 35q80 23 147 83q80 68 80 140q0 60 -84 101q-68 34 -136 34q-82 0 -265 -50q-19 -5 -27 -5q-41 0 -72 31t-31 72q0 83 161 124q109 29 228 29q173 0 292 -85q135 -96 135 -261z" />
<glyph unicode="4" horiz-adv-x="1152" d="M939 1232q0 -143 -9.5 -429t-9.5 -429q0 -46 4 -140t4 -140q0 -38 -30.5 -66t-69.5 -28q-115 0 -115 227v230q-126 -119 -303 -119q-325 0 -325 421q0 81 18 238.5t18 238.5q0 42 30 69.5t73 27.5q42 0 71 -27.5t29 -69.5q0 -38 -25 -272q-12 -109 -12 -194 q0 -234 136 -234q282 0 282 553q17 60 31 177q23 99 100 99q103 0 103 -133z" />
<glyph unicode="5" horiz-adv-x="1198" d="M1038 384q0 -384 -676 -384q-207 0 -207 114q0 91 174 91q28 0 81.5 -2.5t81.5 -2.5q343 0 343 184q0 89 -161 126q-101 24 -234 24q-131 0 -191 278q-37 176 -37 388q0 60 73 90q24 10 82 22q251 53 560 53q37 0 63.5 -30.5t26.5 -68.5q0 -75 -99 -100q-41 -11 -159 -19 q-227 -15 -341 -34q14 -237 63 -371q38 4 75 4q188 0 323 -86q159 -99 159 -276z" />
<glyph unicode="6" horiz-adv-x="1297" d="M1113 442q0 -188 -159 -319q-150 -123 -341 -123q-212 0 -326 145q-103 131 -103 350q0 340 210 724q80 146 147 146q41 0 72.5 -28t31.5 -69q0 -22 -84 -186q-51 -102 -104 -205q69 12 139 12q208 0 356 -118q161 -126 161 -329zM913 445q0 105 -102 178q-94 66 -202 66 q-95 0 -210 -39q-15 -109 -15 -160q0 -125 55 -200q61 -87 181 -87q102 0 194 70q99 73 99 172z" />
<glyph unicode="7" horiz-adv-x="1080" d="M1007 1116q0 -97 -143 -351q-103 -178 -205 -355q-51 -103 -92 -234q-11 -36 -35 -104q-30 -72 -90 -72q-41 0 -75 28t-34 69q0 11 5 28q89 310 283 648q51 79 147 241q20 37 20 56q0 101 -312 101q-41 0 -121 -3.5t-121 -3.5q-51 0 -87 24q-41 27 -41 75q0 39 28 70.5 t66 31.5q32 0 97 -3t195 -3q515 0 515 -243z" />
<glyph unicode="8" horiz-adv-x="1137" d="M998 367q0 -176 -146 -278q-128 -89 -313 -89q-172 0 -271 114q-104 120 -104 297q0 229 171 337q-130 107 -130 279q0 157 83.5 247.5t240.5 90.5q155 0 271 -102t116 -256q0 -179 -153 -270q102 -59 167 -155q68 -102 68 -215zM715 1012q0 68 -53 111t-123 43 q-133 0 -133 -164q0 -58 48 -92q43 -31 102 -31q65 0 112 36t47 97zM773 404q0 74 -76 136t-151 62q-70 0 -124.5 -62t-54.5 -134q0 -71 48 -135q49 -68 119 -68q239 0 239 201z" />
<glyph unicode="9" horiz-adv-x="1033" d="M864 966q0 -125 -36 -316q-50 -263 -57 -312q-22 -171 -30 -201q-36 -137 -116 -137q-38 0 -69.5 27.5t-31.5 64.5q0 89 27 210q26 102 51 205q-41 -9 -81 -9q-192 0 -321 93q-147 102 -147 286q0 178 183 336q175 152 356 152q149 0 217 -133q55 -102 55 -266zM664 1007 q0 77 -15 111q-23 53 -89 53q-109 0 -201.5 -98t-92.5 -209q0 -159 203 -159q79 0 174 25q21 139 21 277z" />
<glyph unicode=":" horiz-adv-x="575" d="M406 727q0 -49 -35.5 -89.5t-85.5 -40.5q-48 0 -86.5 33.5t-38.5 79.5q0 55 26 92q29 45 82 45q49 0 93.5 -36t44.5 -84zM425 128q-19 -51 -43.5 -89.5t-76.5 -38.5q-49 0 -91 35t-42 84q0 47 49.5 91t95.5 44q108 0 108 -126z" />
<glyph unicode=";" horiz-adv-x="555" d="M423 715q0 -44 -35 -75t-81 -31q-51 0 -88.5 29t-37.5 79q0 48 36.5 92t84.5 44q50 0 85.5 -43.5t35.5 -94.5zM408 126q15 -95 -50 -205q-59 -133 -141 -133q-43 0 -73 32.5t-30 75.5q0 22 23 63q17 29 34 60q8 17 27 107q22 101 107 101q45 0 74 -28t29 -73z" />
<glyph unicode="&#x3c;" horiz-adv-x="957" d="M775 952q0 -66 -92 -140q-75 -51 -151 -102q-56 -38 -141 -111q51 -56 157 -116q133 -77 167 -102q51 -40 51 -82q0 -43 -29.5 -78t-72.5 -35q-19 0 -53 17q-437 213 -437 394q0 104 120 202l204 140q14 10 101 83q36 31 68 31q43 0 75.5 -29t32.5 -72z" />
<glyph unicode="=" horiz-adv-x="1130" d="M956 734q0 -45 -28.5 -74.5t-72.5 -29.5q-96 0 -287 -12t-286 -12q-45 0 -73 29t-28 73q0 45 28 74.5t73 29.5q95 0 286 12t287 12q44 0 72.5 -29t28.5 -73zM935 377q21 -87 -106 -106q-17 -3 -191 -3q-39 -9 -153 -19q-96 -8 -154 -8q-128 0 -128 97q0 78 77 106 q65 22 183 22q93 3 187 3q202 11 179 11q43 0 74.5 -30t31.5 -73z" />
<glyph unicode="&#x3e;" horiz-adv-x="858" d="M792 613q0 -113 -126 -219q-108 -80 -215 -158q-69 -57 -101 -57q-43 0 -74.5 33.5t-31.5 75.5q0 69 158.5 176.5t158.5 146.5q0 46 -139 104q-270 113 -270 217q0 43 30.5 73.5t73.5 30.5q31 0 90 -36q45 -29 87 -56q115 -63 227 -127q132 -88 132 -204z" />
<glyph unicode="?" horiz-adv-x="1113" d="M1084 1070q0 -159 -145 -251q-29 -19 -284 -123q-165 -68 -194 -160q-10 -31 -10 -70t-32 -65t-69 -26q-101 0 -101 137q0 174 178 288q123 57 247 111q191 89 191 139q0 80 -97 105q-49 14 -160 14q-116 0 -299 -44q-14 -4 -21 -4q-34 0 -58 36q-20 31 -20 67 q0 141 360 141q196 0 328 -54q186 -75 186 -241zM437 123q0 -51 -42 -87t-93 -36q-44 0 -77.5 35t-33.5 79q0 52 42.5 98t94.5 46q47 0 78 -43t31 -92z" />
<glyph unicode="@" horiz-adv-x="1620" d="M1488 770q0 -178 -71 -318q-91 -172 -251 -172q-87 0 -152 51t-89 137q-67 -60 -150 -60q-103 0 -178 80t-75 183q0 138 112 261.5t250 123.5q73 0 140 -44q75 -49 75 -119q0 -28 -17 -50q58 -27 58 -107q0 -33 -13 -98t-13 -97q0 -80 70 -80q94 0 94 273q0 433 -399 433 q-171 0 -348.5 -161t-177.5 -330q0 -471 412 -471q22 0 63.5 6.5t64.5 6.5q42 0 73 -27t31 -68q0 -68 -72 -103q-43 -20 -177 -20q-262 0 -431 177q-167 173 -167 436q0 303 221 527.5t523 224.5q256 0 425 -169.5t169 -425.5zM956 807q-65 51 -87 51q-67 0 -111 -70 q-39 -61 -39 -131q0 -49 63 -49q61 0 114 71q43 58 60 128z" />
<glyph unicode="A" horiz-adv-x="1056" d="M947 99q0 -43 -32.5 -71t-74.5 -28q-53 0 -75 41q-4 5 -31 85q-80 241 -415 306q-17 -84 -41 -251q-2 -38 -17 -109q-27 -72 -97 -72q-43 0 -71 32.5t-28 75.5q0 252 106.5 581.5t253.5 535.5q101 140 222 140q273 0 273 -621q0 -29 -2 -90v-89q0 -70 4 -126 q1 -35 15 -169q10 -106 10 -171zM720 476v400q-13 83 -15 112q-5 65 -19 113q-17 60 -41 60q-48 0 -153 -195q-84 -154 -130 -336q205 -41 358 -154z" />
<glyph unicode="B" horiz-adv-x="1026" d="M947 985q0 -241 -258 -359q180 -121 180 -290q0 -123 -84 -203q-63 -61 -188 -99q-111 -34 -213 -34q-280 0 -280 254q0 99 27 243q46 235 46 240q6 34 40 434q-62 30 -62 94q0 100 145 100q647 0 647 -380zM746 976q0 79 -128 133q-96 43 -198 53q-14 -210 -43 -426 q369 88 369 240zM669 338q-41 133 -326 193q-39 -198 -39 -282q0 -20 5 -41q29 -8 63 -8q85 0 174 32q113 39 123 106z" />
<glyph unicode="C" horiz-adv-x="956" d="M870 261q0 -41 -47 -89q-65 -64 -192.5 -118t-217.5 -54q-160 0 -253 135q-81 119 -81 287q0 150 41.5 327.5t109.5 312.5q152 303 359 303q251 0 251 -385q0 -185 -106 -185q-38 0 -68.5 28.5t-30.5 65.5q0 26 3.5 76t3.5 76q0 126 -46 126q-69 0 -151 -138 q-56 -95 -92 -201q-75 -222 -75 -401q0 -219 169 -219q68 0 180 77t141 77q41 0 71.5 -31t30.5 -70z" />
<glyph unicode="D" horiz-adv-x="1120" d="M1056 792q0 -258 -249 -522q-252 -270 -508 -270q-171 0 -171 239q0 72 20 358q11 186 48 557q-80 17 -80 95q0 84 97 108q40 8 166 8q281 0 469 -143q208 -157 208 -430zM855 768q0 108 -29 176q-46 109 -179 167q-113 50 -248 50q-24 -147 -68 -842q-3 -54 -3 -75 q0 -20 1 -41q174 33 347 210q179 184 179 355z" />
<glyph unicode="E" horiz-adv-x="1097" d="M986 1258q0 -39 -29.5 -70t-69.5 -31q-22 0 -68 3.5t-68 3.5q-125 0 -261 -27q-16 -89 -68 -297q218 85 300 85q41 0 71 -27.5t30 -68.5q0 -64 -74 -99q-22 -10 -124 -41q-53 -15 -265 -88q-44 -179 -44 -314q0 -87 30 -87q99 0 256 90.5t205 90.5q40 0 70.5 -30 t30.5 -69q0 -45 -51 -87q-75 -64 -239 -129.5t-256 -65.5q-126 0 -191 85q-58 77 -58 209q0 179 76 457q96 348 111 452q9 62 14 72q10 19 60 41q107 49 420 49q192 0 192 -107z" />
<glyph unicode="F" horiz-adv-x="949" d="M858 1266q0 -42 -28 -71t-134 -29q-293 1 -343 -145q-18 -55 -18 -149q-2 -77 -4 -153q292 121 367 121q41 0 71 -33.5t30 -76.5q0 -56 -72 -88q-26 -12 -142 -50q-82 -27 -266 -94q-2 -100 -2 -199q-1 -120 -22 -198q-25 -101 -99 -101q-39 0 -69.5 30.5t-30.5 70.5 q0 145 17 382q22 292 22 381q5 59 7 119q5 72 22 116q66 176 235 232q104 34 342 34q117 0 117 -99z" />
<glyph unicode="G" horiz-adv-x="1062" d="M940 312q0 -124 -126 -222q-118 -90 -247 -90q-130 0 -243 94q-102 85 -155 213q-50 120 -50 277q0 437 251 672q116 109 239 109q82 0 161.5 -49.5t122.5 -122.5q15 -26 15 -46q0 -41 -30 -73.5t-71 -32.5q-36 0 -88 60.5t-99 60.5q-140 0 -229 -223q-70 -178 -70 -345 q0 -147 53 -254q66 -139 196 -139q55 0 102.5 33.5t64.5 84.5q-32 75 -128 75q-7 0 -18 -1h-18q-39 0 -67 30.5t-28 69.5q0 101 136 101q127 0 222 -77q104 -82 104 -205z" />
<glyph unicode="H" horiz-adv-x="1133" d="M1022 1266q0 -208 -58 -793l-24 -258q-1 -38 -12 -113q-23 -102 -100 -102q-41 0 -71 30.5t-30 71.5q0 101 15 246q16 121 29 244q-165 -13 -425 -78q-8 -87 -8 -260q-10 -51 -22 -153q-24 -101 -99 -101q-41 0 -72 30t-31 71q0 146 19 375q26 314 29 374q9 154 9 341 q0 80 15 116q24 58 92 58q43 0 71 -27t28 -70v-544q251 66 413 66q10 113 10 321q12 53 23 155q22 99 99 99q39 0 69.5 -29.5t30.5 -69.5z" />
<glyph unicode="I" horiz-adv-x="758" d="M686 1254q0 -41 -30 -70.5t-71 -29.5q-30 0 -97 8q-22 -411 -22 -537v-410q26 2 36 2q42 0 74 -27.5t32 -68.5q0 -73 -72 -99q-15 -5 -133 -22q-31 -5 -161 -34q-22 -5 -32 -5q-39 0 -65 31.5t-26 70.5q0 92 159 120q-15 317 -15 413q0 201 22 563q-51 -10 -82 -10 q-41 0 -71.5 28t-30.5 69q0 121 249 121q19 0 56 -2h58q222 0 222 -111z" />
<glyph unicode="J" horiz-adv-x="940" d="M829 826q0 -539 -119 -707q-85 -119 -229 -119q-109 0 -232.5 68.5t-183.5 160.5q-29 44 -29 75q0 39 31.5 66.5t72.5 27.5q29 0 67 -29q49 -45 98.5 -88.5t116.5 -70.5q25 -10 41 -10q97 0 139 264q26 162 26 347q0 216 -43 339q-111 -44 -196 -44q-41 0 -67.5 28 t-26.5 69q0 50 26 72q17 12 72 31q182 59 256 59q100 0 148 -227q32 -152 32 -312z" />
<glyph unicode="K" horiz-adv-x="1062" d="M949 96q0 -41 -32.5 -73t-73.5 -32q-26 0 -66 29q-200 140 -316 256q-77 77 -120 149q-8 -80 -24 -242q-5 -87 -18 -122q-26 -61 -96 -61q-43 0 -69 30.5t-26 73.5q0 135 23 359q31 286 36 358q7 97 7 293q10 52 21 152q22 99 99 99q41 0 70.5 -29t29.5 -70 q0 -70 -20 -377q34 31 100 120q74 97 168 206q140 162 174 162q39 0 69 -29.5t30 -70.5q0 -67 -113 -198q-104 -118 -210 -234q-112 -137 -112 -215q0 -101 121 -214q13 -12 227 -174q121 -92 121 -146z" />
<glyph unicode="L" horiz-adv-x="915" d="M908 364q0 -40 -48 -86q-95 -92 -249 -179q-176 -99 -283 -99q-215 0 -215 326q0 67 20 254q26 232 26 441q3 61 3 122q4 72 15 123q24 99 101 99q41 0 71 -29t30 -70q0 23 -22 -336q-4 -101 -17 -300q-28 -297 -28 -343q0 -86 33 -86q90 0 324 185q29 24 89 65 q27 15 46 15q41 0 72.5 -31t31.5 -71z" />
<glyph unicode="M" horiz-adv-x="1461" d="M1364 102q0 -42 -27.5 -72t-68.5 -30q-68 0 -96 65q-11 29 -25 123q-17 119 -62 309q-56 242 -70 309q-52 -207 -146 -622q-17 -87 -31 -117q-29 -67 -89 -67q-56 0 -87 48q-19 25 -39 97q-96 328 -172 703q-53 -218 -140 -660q-14 -91 -29 -123q-29 -65 -96 -65 q-41 0 -68.5 30.5t-27.5 71.5q0 9 4 26q97 510 169 795q24 87 70 261q22 87 39 118q34 63 97 63q60 0 89 -66q14 -31 27 -118q45 -271 149 -693q34 155 113 464q27 86 80 260q22 77 36 100q29 53 85 53q75 0 101 -97q5 -20 12 -121q6 -91 40 -260q48 -199 96 -399 q67 -276 67 -386z" />
<glyph unicode="N" horiz-adv-x="1220" d="M1109 628q0 -176 -54 -328q-110 -305 -325 -305q-300 0 -389 575q-24 -184 -24 -360q0 -210 -112 -210q-41 0 -70 28t-29 69q0 260 48 615q56 425 138 582q37 71 94 71q78 0 104 -99q8 -32 8 -213q12 -229 55 -481q65 -379 172 -379q89 0 142 181q41 138 41 257 q0 108 -40 318t-40 314q0 43 27 72.5t68 29.5q65 0 99 -73q24 -51 36 -147q9 -75 15 -152q36 -329 36 -365z" />
<glyph unicode="O" horiz-adv-x="1217" d="M1126 807q0 -275 -151 -522q-175 -285 -432 -285q-212 0 -336 186q-111 162 -111 384q0 287 112 512q142 282 400 282q245 0 385 -157q133 -151 133 -400zM927 814q0 347 -350 347q-121 0 -210 -243q-72 -198 -72 -348q0 -241 142 -333q53 -34 101 -34q169 0 286 229 q103 196 103 382z" />
<glyph unicode="P" horiz-adv-x="1060" d="M1038 1005q0 -210 -244 -374q-195 -129 -439 -180q-7 -79 -19 -238q-5 -104 -13 -134q-23 -79 -94 -79q-41 0 -70 30t-29 71q0 187 24 522q25 367 25 522q-56 34 -56 99q0 58 72.5 89.5t292.5 31.5q210 0 359 -75q191 -95 191 -285zM836 1010q0 89 -160 128 q-103 24 -234 24q-31 0 -60 -1q-1 -204 -1 -501q150 47 276 122q179 105 179 228z" />
<glyph unicode="Q" horiz-adv-x="1210" d="M1130 691q0 -196 -91 -365q-95 -179 -261 -268q67 -154 67 -196q0 -39 -31 -69t-70 -30q-102 0 -159 239q-15 -2 -32 -2q-229 0 -364 200q-119 175 -119 414q0 265 123 487q147 264 389 264q253 0 408 -216q140 -195 140 -458zM930 691q0 130 -54 244q-57 121 -161 188 q-68 44 -123 44q-148 0 -244 -213q-78 -172 -78 -343q0 -130 59 -244q69 -128 183 -162q-58 143 -58 179q0 39 30.5 69t70.5 30q92 0 157 -230q104 68 164 191q54 116 54 247z" />
<glyph unicode="R" horiz-adv-x="1132" d="M1053 797q0 -328 -394 -466q217 -135 217 -230q0 -40 -32 -68t-73 -28q-25 0 -66 29q-74 56 -145 111q-87 65 -159 92v-78q0 -159 -104 -159q-41 0 -70 28t-29 69v374q26 217 26 650q-4 -7 -24 -7q-41 0 -70 29t-29 70q0 86 129 125q89 27 200 27q263 0 439 -152 q184 -158 184 -416zM852 802q0 130 -144 246q-133 107 -268 119q-1 -145 -1 -698q134 41 249 110q164 99 164 223z" />
<glyph unicode="S" horiz-adv-x="1068" d="M966 1114q0 -41 -29 -69t-70 -28q-39 0 -111 72.5t-162 72.5q-60 0 -120 -22q-80 -29 -80 -77q0 -65 142 -203q218 -213 266 -271q142 -174 142 -328q0 -128 -106 -200q-90 -61 -225 -61q-99 0 -258 31q-183 36 -237 80q-48 39 -48 87q0 41 27.5 70t68.5 29q22 0 44 -7 h-2q243 -89 429 -89q104 0 104 75q0 103 -142 245q-130 128 -261 254q-142 155 -142 288q0 140 133 227q118 75 265 75q114 0 210 -47q107 -53 150 -151q12 -27 12 -53z" />
<glyph unicode="T" horiz-adv-x="1056" d="M1010 1277q0 -98 -145 -98q-114 0 -232 -8q0 -159 -6.5 -486t-6.5 -490q0 -87 -14 -127q-24 -68 -96 -68q-41 0 -70 28t-29 69v270q22 329 22 573v212q-215 -20 -291 -20q-96 0 -96 95q0 80 96 104q46 12 116 14q58 2 116 2q68 3 244 20q153 15 244 15q148 0 148 -105z " />
<glyph unicode="U" horiz-adv-x="1137" d="M1027 1015q0 -411 -61 -631q-109 -384 -413 -384q-254 0 -365 270q-77 189 -77 488q0 433 53 534q39 73 99 73q41 0 70 -31.5t29 -72.5q0 -22 -26 -162q-22 -121 -22 -351q0 -192 41 -332q61 -216 201 -216q157 0 226 293q44 186 44 422q0 58 -10 172t-10 173 q0 42 26 73.5t69 31.5q65 0 99 -73q27 -58 27 -277z" />
<glyph unicode="V" horiz-adv-x="1068" d="M1026 1268q0 -34 -113 -270q-188 -392 -304 -774q-32 -106 -49 -139q-43 -85 -104 -85q-75 0 -128 195q-28 129 -53 261q-29 143 -98 392q-76 278 -102 391q-3 15 -3 22q0 41 28 72.5t69 31.5q60 0 99 -73q34 -65 58 -181q17 -94 34 -189q41 -157 121 -471 q106 250 306 754q29 77 46 104q37 56 92 56q41 0 71 -29t30 -68z" />
<glyph unicode="W" horiz-adv-x="1492" d="M1418 1265q0 -81 -106 -364q-71 -191 -145 -382l-99 -299q-42 -130 -46 -136q-39 -84 -102 -84q-68 0 -103 82q-15 34 -34 138q-27 128 -76 384q-45 -182 -128 -471q-21 -70 -38 -95q-31 -48 -85 -48q-62 0 -91 66q-12 29 -29 120q-37 196 -119 532q-91 381 -123 531 q-4 17 -4 24q0 41 28.5 71.5t69.5 30.5q66 0 99 -73q10 -22 22 -113q5 -37 63 -274q32 -142 97 -427q108 415 147 642q15 85 27 114q28 65 86 65q75 0 99 -72q10 -32 10 -133q15 -225 101 -635l239 724q12 37 42 109q41 73 98 73q39 0 69.5 -30.5t30.5 -69.5z" />
<glyph unicode="X" horiz-adv-x="1022" d="M927 1193q0 -32 -139 -236q-85 -128 -172 -254q27 -54 200 -372q97 -177 97 -234q0 -42 -27.5 -69.5t-69.5 -27.5q-65 0 -183 212q-22 44 -136 281q-41 -75 -142 -276q-22 -48 -79 -135q-40 -50 -87 -50q-97 0 -97 101q0 21 9 50q17 59 290 529q-219 471 -219 561 q0 39 32.5 65.5t73.5 26.5q55 0 92.5 -68t78.5 -186q53 -152 68 -189q67 109 133 220q108 155 174 155q41 0 72 -31.5t31 -72.5z" />
<glyph unicode="Y" horiz-adv-x="1147" d="M1039 983q0 -340 -41 -509q-68 -281 -271 -414q-90 -60 -193 -60q-42 0 -73 26.5t-31 69.5q0 68 58 93q58 16 114 33q207 82 207 522q-106 -237 -321 -237q-256 0 -355 261q-65 171 -65 478q0 119 101 119q87 0 106 -134q10 -137 22 -275q22 -169 113 -226q37 -23 66 -23 q38 0 87 27q89 48 154 181q53 107 77 232q5 39 25 113q29 71 94 71q72 0 102 -97q24 -75 24 -251z" />
<glyph unicode="Z" horiz-adv-x="1169" d="M1073 167q0 -97 -235 -140q-147 -27 -317 -27q-111 0 -207 41q-125 55 -125 150q0 140 157 340q45 58 289 324q157 169 157 232q0 80 -210 80q-53 0 -160.5 -6.5t-160.5 -6.5q-167 0 -167 104t169 104q41 0 121 1.5t121 1.5q510 0 510 -261q0 -107 -136 -278 q-135 -154 -271 -305q-163 -185 -204 -297q59 -17 117 -17q105 0 298 37q115 22 162 22q38 0 65 -30.5t27 -68.5z" />
<glyph unicode="[" horiz-adv-x="732" d="M572 99q0 -43 -28.5 -71t-193.5 -28q-193 0 -193 108q0 141 24 385q27 278 27 580q4 115 14 171q8 45 21 62.5t52 34.5q57 24 168 24q42 0 71 -27t29 -68q0 -98 -143 -113q-12 -585 -53 -957h61q144 0 144 -101z" />
<glyph unicode="\" horiz-adv-x="707" d="M664 99q0 -39 -31 -69t-70 -30q-56 0 -97 73q-26 46 -65 157q-43 134 -131 396q-67 166 -133 330q-98 245 -98 310q0 41 29 70t70 29q57 0 92 -58q14 -22 43 -106q101 -264 295 -797q36 -92 92 -278q4 -15 4 -27z" />
<glyph unicode="]" horiz-adv-x="741" d="M579 1256q0 -140 -24 -382q-29 -273 -29 -603q-4 -100 -12 -150q-12 -72 -72 -96.5t-171 -24.5q-42 0 -72 27.5t-30 68.5q0 99 147 114q12 590 51 952q-53 2 -106 2q-43 0 -70 30t-27 72q0 41 28 70t182 29q205 0 205 -109z" />
<glyph unicode="^" horiz-adv-x="952" d="M833 541q0 -41 -33.5 -68.5t-74.5 -27.5q-65 0 -100 74q-21 41 -48 153q-27 120 -97 352q-2 -7 -81 -270q-56 -186 -100 -244q-40 -51 -89 -51q-43 0 -72.5 29t-29.5 72q0 44 124.5 380.5t154.5 375.5q40 49 86 49q53 0 92 -49q68 -87 152 -353q54 -195 109 -390 q7 -23 7 -32z" />
<glyph unicode="_" horiz-adv-x="1048" d="M823 0h-603v137h603v-137z" />
<glyph unicode="`" horiz-adv-x="551" d="M445 1560q0 -43 -29.5 -76t-72.5 -33q-46 0 -94 53q-39 44 -92 122q-65 96 -65 130q0 41 34 70t77 29q46 0 85 -48q157 -189 157 -247z" />
<glyph unicode="a" horiz-adv-x="1068" d="M951 99q0 -43 -32.5 -71t-75.5 -28q-53 0 -75 41q-3 5 -31 85q-80 241 -414 306q-18 -84 -41 -251q-2 -38 -17 -109q-28 -72 -98 -72q-42 0 -70.5 32.5t-28.5 75.5q0 252 107 581.5t253 535.5q101 140 222 140q273 0 273 -621q0 -29 -1 -90v-89q0 -70 3 -126 q2 -35 15 -169q11 -106 11 -171zM724 476v400q-14 83 -16 112q-5 65 -19 113q-17 60 -40 60q-48 0 -154 -195q-84 -154 -130 -336q205 -41 359 -154z" />
<glyph unicode="b" horiz-adv-x="1038" d="M954 985q0 -241 -258 -359q180 -121 180 -290q0 -123 -84 -203q-63 -61 -188 -99q-111 -34 -213 -34q-280 0 -280 254q0 99 27 243q46 235 46 240q5 34 40 434q-62 30 -62 94q0 100 145 100q647 0 647 -380zM753 976q0 79 -128 133q-96 43 -198 53q-14 -210 -43 -426 q369 88 369 240zM676 338q-41 133 -326 193q-39 -198 -39 -282q0 -20 5 -41q29 -8 63 -8q85 0 174 32q113 39 123 106z" />
<glyph unicode="c" horiz-adv-x="968" d="M876 261q0 -41 -48 -89q-65 -64 -192 -118t-218 -54q-160 0 -252 135q-82 119 -82 287q0 150 41.5 327.5t110.5 312.5q151 303 358 303q251 0 251 -385q0 -185 -106 -185q-38 0 -68.5 28.5t-30.5 65.5q0 26 3.5 76t3.5 76q0 126 -46 126q-69 0 -150 -138 q-57 -95 -93 -201q-75 -222 -75 -401q0 -219 169 -219q69 0 180.5 77t140.5 77q41 0 72 -31t31 -70z" />
<glyph unicode="d" horiz-adv-x="1133" d="M1065 792q0 -258 -249 -522q-253 -270 -509 -270q-170 0 -170 239q0 72 20 358q10 186 48 557q-80 17 -80 95q0 84 97 108q39 8 165 8q282 0 470 -143q208 -157 208 -430zM864 768q0 108 -29 176q-47 109 -180 167q-112 50 -247 50q-24 -147 -68 -842q-4 -54 -4 -75 q0 -20 2 -41q174 33 346 210q180 184 180 355z" />
<glyph unicode="e" horiz-adv-x="1113" d="M993 1258q0 -39 -29.5 -70t-69.5 -31q-22 0 -68 3.5t-68 3.5q-125 0 -261 -27q-16 -89 -69 -297q219 85 301 85q41 0 70.5 -27.5t29.5 -68.5q0 -64 -73 -99q-22 -10 -125 -41q-52 -15 -264 -88q-44 -179 -44 -314q0 -87 30 -87q99 0 256 90.5t205 90.5q39 0 70 -30 t31 -69q0 -45 -51 -87q-76 -64 -239.5 -129.5t-255.5 -65.5q-127 0 -192 85q-58 77 -58 209q0 179 77 457q96 348 111 452q9 62 14 72q10 19 60 41q107 49 419 49q193 0 193 -107z" />
<glyph unicode="f" horiz-adv-x="891" d="M870 1266q0 -42 -28 -71t-134 -29q-293 1 -343 -145q-19 -55 -19 -149q-1 -77 -3 -153q292 121 367 121q41 0 71 -33.5t30 -76.5q0 -56 -72 -88q-26 -12 -142 -50q-82 -27 -266 -94q0 -63 -1.5 -189t-22.5 -208q-25 -101 -99 -101q-39 0 -69.5 30.5t-30.5 70.5 q0 145 17 382q22 292 22 381q5 59 7 119q5 72 22 116q66 176 235 232q104 34 342 34q117 0 117 -99z" />
<glyph unicode="g" horiz-adv-x="1075" d="M947 312q0 -124 -126 -222q-118 -90 -248 -90q-129 0 -242 94q-102 85 -155 213q-50 120 -50 277q0 437 251 672q116 109 239 109q82 0 161.5 -49.5t121.5 -122.5q16 -26 16 -46q0 -41 -30 -73.5t-71 -32.5q-36 0 -88 60.5t-100 60.5q-140 0 -228 -223q-70 -178 -70 -345 q0 -147 53 -254q66 -139 196 -139q54 0 102 33.5t65 84.5q-32 75 -128 75q-7 0 -19 -1h-17q-39 0 -67 30.5t-28 69.5q0 101 136 101q127 0 222 -77q104 -82 104 -205z" />
<glyph unicode="h" horiz-adv-x="1142" d="M1026 1266q0 -208 -58 -793q-9 -86 -24 -258q-2 -38 -12 -113q-24 -102 -101 -102q-41 0 -71 30.5t-30 71.5q0 101 16 246q15 121 29 244q-166 -13 -425 -78q-9 -87 -9 -260q-10 -51 -22 -153q-24 -101 -99 -101q-41 0 -71.5 30t-30.5 71q0 146 19 375q25 314 29 374 q8 154 8 341q0 80 15 116q24 58 93 58q42 0 70.5 -27t28.5 -70v-544q250 66 413 66q10 113 10 321q12 53 22 155q22 99 99 99q39 0 70 -29.5t31 -69.5z" />
<glyph unicode="i" horiz-adv-x="445" d="M370 1266q0 -148 -25 -377q-38 -322 -41 -377q-14 -174 -14 -319q0 -193 -107 -193q-40 0 -70.5 30.5t-30.5 70.5q0 158 19 392q15 195 30 391q6 96 6 193q11 113 34 189q29 99 99 99q41 0 70.5 -29t29.5 -70z" />
<glyph unicode="j" horiz-adv-x="947" d="M833 826q0 -539 -120 -707q-85 -119 -228 -119q-110 0 -233.5 68.5t-183.5 160.5q-29 44 -29 75q0 39 31.5 66.5t72.5 27.5q29 0 67 -29q49 -45 98.5 -88.5t116.5 -70.5q26 -10 41 -10q97 0 140 264q25 162 25 347q0 216 -42 339q-111 -44 -196 -44q-41 0 -67.5 28 t-26.5 69q0 50 25 72q17 12 72 31q183 59 256 59q101 0 148 -227q33 -150 33 -312z" />
<glyph unicode="k" horiz-adv-x="1068" d="M952 96q0 -41 -32.5 -73t-72.5 -32q-26 0 -67 29q-200 140 -316 256q-77 77 -119 149q-9 -80 -24 -242q-5 -87 -19 -122q-26 -61 -95 -61q-43 0 -69.5 30.5t-26.5 73.5q0 135 24 359q31 285 36 358q6 97 6 293q11 52 21 152q22 99 99 99q41 0 71 -29t30 -70 q0 -70 -21 -377q34 31 101 120q73 97 167 206q140 162 174 162q39 0 69 -29.5t30 -70.5q0 -67 -112 -198q-105 -118 -210 -234q-113 -137 -113 -215q0 -101 121 -214q14 -12 227 -174q121 -92 121 -146z" />
<glyph unicode="l" horiz-adv-x="916" d="M910 364q0 -40 -48 -86q-96 -92 -249 -179q-176 -99 -284 -99q-215 0 -215 326q0 67 21 254q25 232 25 441q4 61 4 122q3 72 15 123q24 99 101 99q41 0 71 -29t30 -70q0 23 -23 -336q-3 -101 -17 -300q-27 -297 -27 -343q0 -86 32 -86q91 0 325 185q29 24 88 65 q28 15 47 15q41 0 72.5 -31t31.5 -71z" />
<glyph unicode="m" horiz-adv-x="1466" d="M1365 102q0 -42 -27 -72t-68 -30q-69 0 -96 65q-12 29 -25 123q-17 119 -62 309q-56 242 -70 309q-53 -207 -147 -622q-17 -87 -30 -117q-29 -67 -89 -67q-56 0 -87 48q-19 25 -39 97q-96 328 -173 703q-53 -218 -140 -660q-13 -91 -29 -123q-29 -65 -95 -65 q-41 0 -68.5 30.5t-27.5 71.5q0 9 4 26q97 510 169 795q23 87 70 261q22 87 39 118q34 63 97 63q60 0 89 -66q13 -31 27 -118q44 -271 149 -693q34 155 112 464q28 86 80 260q23 77 36 100q29 53 86 53q75 0 100 -97q5 -20 12 -121q7 -91 41 -260q48 -199 96 -399 q66 -276 66 -386z" />
<glyph unicode="n" horiz-adv-x="1224" d="M1111 628q0 -176 -55 -328q-109 -305 -324 -305q-300 0 -389 575q-24 -184 -24 -360q0 -210 -112 -210q-41 0 -70 28t-29 69q0 260 47 615q57 425 139 582q37 71 93 71q79 0 105 -99q8 -32 8 -213q12 -229 55 -481q65 -379 172 -379q89 0 142 181q41 138 41 257 q0 108 -40.5 318t-40.5 314q0 43 27.5 72.5t68.5 29.5q65 0 99 -73q24 -51 36 -147q8 -75 15 -152q36 -329 36 -365z" />
<glyph unicode="o" horiz-adv-x="1220" d="M1128 807q0 -275 -152 -522q-174 -285 -432 -285q-211 0 -336 186q-111 162 -111 384q0 287 113 512q142 282 399 282q246 0 386 -157q133 -151 133 -400zM928 814q0 347 -349 347q-122 0 -210 -243q-72 -198 -72 -348q0 -241 142 -333q53 -34 100 -34q169 0 287 229 q102 196 102 382z" />
<glyph unicode="p" horiz-adv-x="1063" d="M1041 1005q0 -210 -244 -374q-195 -129 -439 -180q-6 -79 -18 -238q-5 -104 -14 -134q-22 -79 -94 -79q-41 0 -70 30t-29 71q0 187 24 522q26 367 26 522q-57 34 -57 99q0 58 72.5 89.5t293.5 31.5q209 0 358 -75q191 -95 191 -285zM840 1010q0 89 -161 128 q-102 24 -234 24q-30 0 -59 -1q-2 -204 -2 -501q150 47 276 122q180 105 180 228z" />
<glyph unicode="q" horiz-adv-x="1213" d="M1132 691q0 -196 -91 -365q-96 -179 -261 -268q67 -154 67 -196q0 -39 -31 -69t-70 -30q-103 0 -159 239q-15 -2 -32 -2q-229 0 -364 200q-119 175 -119 414q0 265 123 487q146 264 389 264q252 0 408 -216q140 -195 140 -458zM932 691q0 130 -55 244q-56 121 -160 188 q-68 44 -123 44q-149 0 -244 -213q-79 -172 -79 -343q0 -130 60 -244q68 -128 183 -162q-58 143 -58 179q0 39 30.5 69t69.5 30q93 0 157 -230q104 68 164 191q55 116 55 247z" />
<glyph unicode="r" horiz-adv-x="1135" d="M1055 797q0 -328 -395 -466q217 -135 217 -230q0 -40 -31.5 -68t-72.5 -28q-25 0 -66 29q-74 56 -146 111q-87 65 -158 92v-78q0 -159 -104 -159q-41 0 -70 28t-29 69v374q25 217 25 650q-3 -7 -24 -7q-41 0 -70 29t-29 70q0 86 130 125q89 27 200 27q263 0 438 -152 q185 -158 185 -416zM853 802q0 130 -143 246q-133 107 -268 119q-2 -145 -2 -698q135 41 249 110q164 99 164 223z" />
<glyph unicode="s" horiz-adv-x="1070" d="M966 1114q0 -41 -29 -69t-70 -28q-39 0 -111 72.5t-162 72.5q-60 0 -120 -22q-80 -29 -80 -77q0 -65 142 -203q218 -213 266 -271q142 -174 142 -328q0 -128 -106 -200q-90 -61 -225 -61q-99 0 -258 31q-183 36 -237 80q-48 39 -48 87q0 41 27.5 70t68.5 29q22 0 44 -7 h-2q243 -89 429 -89q104 0 104 75q0 103 -142 245q-130 128 -261 254q-142 155 -142 288q0 140 133 227q118 75 265 75q114 0 210 -47q107 -53 150 -151q12 -27 12 -53z" />
<glyph unicode="t" horiz-adv-x="1058" d="M1010 1277q0 -98 -145 -98q-114 0 -232 -8q0 -159 -6.5 -486t-6.5 -490q0 -87 -14 -127q-24 -68 -96 -68q-41 0 -70 28t-29 69v270q22 329 22 573v212q-215 -20 -291 -20q-96 0 -96 95q0 80 96 104q46 12 116 14q58 2 116 2q68 3 244 20q153 15 244 15q148 0 148 -105z " />
<glyph unicode="u" horiz-adv-x="1140" d="M1029 1015q0 -411 -61 -631q-110 -384 -413 -384q-255 0 -366 270q-76 189 -76 488q0 433 53 534q39 73 99 73q40 0 69.5 -31.5t29.5 -72.5q0 -22 -26 -162q-22 -121 -22 -351q0 -192 41 -332q61 -216 201 -216q157 0 225 293q45 186 45 422q0 58 -10.5 172t-10.5 173 q0 42 26.5 73.5t69.5 31.5q65 0 99 -73q27 -58 27 -277z" />
<glyph unicode="v" horiz-adv-x="1070" d="M1026 1268q0 -34 -113 -270q-188 -392 -304 -774q-32 -106 -49 -139q-43 -85 -104 -85q-75 0 -128 195q-28 129 -53 261q-29 143 -98 392q-76 278 -102 391q-3 15 -3 22q0 41 28 72.5t69 31.5q60 0 99 -73q34 -65 58 -181q17 -94 34 -189q41 -157 121 -471 q106 250 306 754q29 77 46 104q37 56 92 56q41 0 71 -29t30 -68z" />
<glyph unicode="w" horiz-adv-x="1495" d="M1420 1265q0 -81 -106 -364q-72 -191 -145 -382l-99 -299q-43 -130 -46 -136q-39 -84 -102 -84q-69 0 -103 82q-15 34 -34 138q-27 128 -77 384q-44 -182 -128 -471q-20 -70 -37 -95q-31 -48 -86 -48q-61 0 -90 66q-12 29 -29 120q-38 196 -120 532q-90 381 -122 531 q-4 17 -4 24q0 41 28 71.5t69 30.5q67 0 99 -73q11 -22 23 -113q5 -37 63 -274q32 -142 97 -427q108 415 147 642q15 85 27 114q27 65 85 65q76 0 99 -72q11 -32 11 -133q15 -225 100 -635l239 724q12 37 43 109q41 73 97 73q40 0 70.5 -30.5t30.5 -69.5z" />
<glyph unicode="x" horiz-adv-x="1022" d="M927 1193q0 -32 -139 -236q-85 -128 -172 -254q27 -54 200 -372q97 -177 97 -234q0 -42 -27.5 -69.5t-69.5 -27.5q-65 0 -183 212q-22 42 -136 281q-41 -75 -142 -276q-22 -48 -79 -135q-40 -50 -87 -50q-97 0 -97 101q0 21 9 50q17 59 290 529q-219 471 -219 561 q0 39 32.5 65.5t73.5 26.5q55 0 92.5 -68t78.5 -186q53 -152 68 -189q67 109 133 220q108 155 174 155q41 0 72 -31.5t31 -72.5z" />
<glyph unicode="y" horiz-adv-x="1145" d="M1039 983q0 -340 -41 -509q-68 -281 -271 -414q-90 -60 -193 -60q-42 0 -73 26.5t-31 69.5q0 68 58 93q58 16 114 33q207 82 207 522q-106 -237 -321 -237q-256 0 -355 261q-65 171 -65 478q0 119 101 119q87 0 106 -134q10 -137 22 -275q22 -169 113 -226q37 -23 66 -23 q38 0 87 27q89 48 154 181q53 107 77 232q5 39 25 113q29 71 94 71q72 0 102 -97q24 -75 24 -251z" />
<glyph unicode="z" horiz-adv-x="1169" d="M1073 167q0 -97 -235 -140q-147 -27 -317 -27q-111 0 -207 41q-125 55 -125 150q0 140 157 340q45 58 289 324q157 169 157 232q0 80 -210 80q-53 0 -160.5 -6.5t-160.5 -6.5q-167 0 -167 104t169 104q41 0 121 1.5t121 1.5q510 0 510 -261q0 -107 -136 -278 q-135 -154 -271 -305q-163 -185 -204 -297q59 -17 117 -17q105 0 298 37q115 22 162 22q38 0 65 -30.5t27 -68.5z" />
<glyph unicode="{" horiz-adv-x="937" d="M759 1266q0 -78 -97 -100q-75 -12 -148 -24q-103 -24 -103 -80q0 -55 65 -167.5t65 -184.5q0 -89 -101 -106q94 -12 94 -119q0 -38 -54.5 -97.5t-61.5 -93.5q39 -52 191 -87q123 -30 123 -106q0 -41 -30.5 -71t-71.5 -30q-150 0 -273 77q-140 89 -140 230q0 55 30 97 q16 19 74 76q-79 15 -159 29q-97 29 -97 104q0 73 101 109q42 14 162 32q-70 132 -77 147q-38 85 -38 159q0 155 154 239q126 66 295 66q43 0 70 -28t27 -71z" />
<glyph unicode="|" horiz-adv-x="589" d="M367 97q0 -42 -28 -69.5t-71 -27.5q-104 0 -104 1268q3 43 32 70t72 27t71 -28t28 -69q0 -164 -1.5 -492.5t-1.5 -492.5q0 -30 1.5 -92.5t1.5 -93.5z" />
<glyph unicode="}" horiz-adv-x="939" d="M872 744q0 -109 -263 -136q63 -113 75 -142q38 -82 38 -154q0 -155 -154 -240q-124 -69 -293 -69q-43 0 -70.5 30t-27.5 73q0 61 52 87q32 15 111.5 22t106.5 19q74 34 74 92q0 53 -63.5 157t-63.5 166q0 87 87 102q-78 27 -78 123q0 60 32 106q17 24 75 82 q-27 61 -177 93q-133 31 -133 110q0 41 29.5 70.5t70.5 29.5q152 0 273 -78q142 -89 142 -232q0 -58 -29 -99q-14 -19 -73 -74q80 -15 160 -32q99 -31 99 -106z" />
<glyph unicode="~" horiz-adv-x="1331" d="M1145 717q0 -225 -75 -331q-90 -125 -305 -125q-96 0 -134 85q-5 12 -40 161q-21 85 -70 85q-76 0 -113 -80q-27 -73 -53 -148q-32 -81 -94 -81q-46 0 -76.5 31t-30.5 77q0 143 109 271q112 135 252 135q132 0 190 -104q14 -24 19 -99q6 -80 17 -109q20 -52 75 -52 q92 0 121 98q15 51 15 169q0 119 87 119q45 0 75.5 -29t30.5 -73z" />
<glyph unicode="&#xa1;" horiz-adv-x="556" d="M480 1099q0 -44 -31 -92q-34 -53 -77 -53q-44 0 -81 36t-37 78q0 52 37 89.5t88 37.5q39 0 70 -28.5t31 -67.5zM422 729q0 -128 -53 -422q-57 -305 -103 -404q-34 -74 -97 -74q-41 0 -70 31t-29 72q0 75 34 247q27 126 55 253q17 100 63 297q31 100 101 100 q41 0 70 -29.5t29 -70.5z" />
<glyph unicode="&#xa2;" horiz-adv-x="1126" d="M1056 874q0 -38 -26 -69.5t-64 -31.5q-63 0 -85 50q-16 47 -31 93q-29 50 -113 50q-49 -287 -102 -546q114 0 247 24q19 3 24 3q45 0 75.5 -28t30.5 -73q0 -71 -75 -102q-97 -39 -346 -39l-12 -46q-19 -89 -28 -104q-25 -55 -83 -55q-45 0 -79 30t-34 72q0 33 27 149 q-288 97 -288 389q0 195 136.5 348.5t330.5 185.5q11 91 28 125q29 66 97 66q44 0 72.5 -31.5t28.5 -75.5q0 -29 -16 -87q219 -51 280 -266q5 -18 5 -31zM524 951q-97 -64 -161 -141.5t-64 -181.5q0 -119 128 -176q61 301 97 499z" />
<glyph unicode="&#xa3;" horiz-adv-x="1446" d="M1306 116q0 -44 -28.5 -74t-72.5 -30q-72 0 -213.5 -6t-213.5 -6q-269 0 -375 48q-74 34 -74 97q0 68 93 116t93 108q0 68 -34 172q-138 2 -150 2q-87 3 -150 18q-104 24 -104 106q0 36 24 71t58 35q5 0 22 -3q111 -22 235 -22q-39 134 -39 197q0 192 97 303 q103 117 291 117q99 0 182 -30q104 -40 140 -115q14 -29 14 -49q0 -43 -34 -75.5t-79 -32.5q-8 0 -86 46t-144 46q-74 0 -123.5 -59.5t-49.5 -134.5q0 -74 46 -210h175q109 2 175 2q45 0 73 -29t28 -74q0 -44 -28 -74t-73 -30h-141q-116 -5 -142 -5q24 -92 24 -172 q0 -93 -39 -159q56 -3 104 -3q70 0 209 7.5t209 7.5q44 0 72.5 -31t28.5 -75z" />
<glyph unicode="&#xa4;" horiz-adv-x="1469" d="M1318 1106q0 -36 -31 -72q-48 -46 -142 -138q51 -104 51 -217q0 -112 -61 -203q41 -49 118 -152q30 -42 30 -77q0 -42 -32 -70.5t-75 -28.5q-36 0 -66 26t-134 167q-106 -53 -230 -53q-113 0 -207 53q-42 -56 -135 -167q-47 -53 -92 -53q-41 0 -71.5 32.5t-30.5 75.5 q0 42 72 136q56 74 109 123q-65 109 -65 246q0 118 43 205q-159 157 -159 215q0 42 30 75.5t72 33.5q45 0 92 -53q36 -41 110 -119q90 49 206 49q159 0 287 -87q145 157 208 157q43 0 73 -30.5t30 -73.5zM985 691q0 99 -89 171q-82 68 -184 68q-86 0 -131 -55.5t-45 -142.5 q0 -109 63 -171.5t174 -62.5q82 0 147 56.5t65 136.5z" />
<glyph unicode="&#xa5;" horiz-adv-x="1242" d="M1094 1096q0 -306 -181 -447q80 -14 80 -101q0 -45 -28 -74.5t-72 -29.5h-192v-159q159 9 166 9q43 0 74.5 -30t31.5 -73q0 -82 -106 -106q-44 -10 -169 -10q-27 0 -41 -37.5t-84 -37.5q-66 0 -93 65q-113 -10 -111 -10q-128 0 -128 97q0 80 83 107q40 14 152 14 q4 77 9 152q-98 -5 -166 -5q-44 0 -72.5 29t-28.5 73q0 104 111 104q-155 110 -155 405q0 194 29 269q27 65 111 65q41 0 70 -31.5t29 -72.5q0 -44 -7.5 -134.5t-7.5 -134.5q0 -238 210 -238q150 0 208 106q44 79 44 241q0 27 -1.5 79t-1.5 80q0 42 26.5 73.5t68.5 31.5 q92 0 120 -68q22 -56 22 -201z" />
<glyph unicode="&#xa6;" horiz-adv-x="591" d="M387 823q0 -43 -31.5 -74.5t-73.5 -31.5q-113 0 -113 546q0 44 30.5 73t75.5 29q44 0 73 -29t29 -73q0 -251 2 -294q0 -17 5 -73q3 -46 3 -73zM394 101q-7 -45 -32.5 -73t-69.5 -28q-45 0 -75.5 28t-30.5 428q0 44 30.5 73t75.5 29q44 0 73 -29t29 -73v-355z" />
<glyph unicode="&#xa8;" horiz-adv-x="1021" d="M835 1596q0 -51 -30 -89.5t-80 -38.5q-51 0 -97 35t-46 84q0 46 49.5 90.5t95.5 44.5q108 0 108 -126zM420 1579q0 -50 -36 -89t-85 -39q-48 0 -86.5 33t-38.5 79q0 55 27.5 95t80.5 40q49 0 93.5 -36t44.5 -83z" />
<glyph unicode="&#xa9;" horiz-adv-x="1708" d="M1555 572q0 -267 -222 -427q-198 -145 -475 -145q-293 0 -496 176q-212 184 -212 474q0 272 207.5 493.5t477.5 221.5q317 0 524 -242q196 -229 196 -551zM1352 575q0 213 -147 396q-157 195 -365 195q-181 0 -335.5 -171t-154.5 -353q0 -209 159 -331q146 -111 360 -111 q181 0 322 95q161 108 161 280zM1087 451q0 -111 -196 -111q-147 0 -244 70q-109 78 -109 220q0 157 118.5 268t275.5 111q147 0 147 -106q0 -101 -79 -101q-7 0 -20.5 3.5t-20.5 3.5q-89 0 -150 -50q-68 -52 -68 -139q0 -40 44 -64q38 -18 80 -18q53 0 82 5q38 7 58 7 q22 0 52 -29t30 -70z" />
<glyph unicode="&#xab;" horiz-adv-x="1500" d="M1319 911q0 -66 -92 -140l-150 -102q-56 -39 -142 -111q51 -56 157 -116q135 -78 168 -102q51 -38 51 -82q0 -43 -30 -78t-73 -35q-17 0 -53 17q-442 212 -442 362q0 15 6 32q29 99 133 195q42 37 191 147q19 13 100 83q36 31 69 31q42 0 74.5 -29t32.5 -72zM713 952 q0 -66 -92 -140l-150 -102q-56 -39 -142 -111q52 -56 157 -116q134 -75 168 -102q51 -40 51 -82q0 -43 -30 -78t-73 -35q-17 0 -52 17q-156 75 -267 161q-170 128 -170 233q0 104 119 202q103 70 205 140q7 5 101 83q35 31 68 31q43 0 75 -29t32 -72z" />
<glyph unicode="&#xad;" horiz-adv-x="1072" d="M877 567q0 -45 -28 -74.5t-72 -29.5q-65 0 -196.5 -8t-196.5 -8q-195 0 -195 111q0 39 29 71.5t69 32.5q22 0 64 -2.5t64 -2.5q59 0 180.5 7.5t181.5 7.5q44 0 72 -30.5t28 -74.5z" />
<glyph unicode="&#xae;" horiz-adv-x="1652" d="M1497 689q0 -281 -176 -477q-183 -205 -461 -205t-493 203t-215 479q0 267 155 465q167 211 427 211q324 0 536 -172q227 -186 227 -504zM1295 695q0 196 -157 334q-150 135 -348 135q-203 0 -324 -142q-114 -135 -114 -341q0 -195 167 -338q159 -138 357 -138 q187 0 308 153q111 144 111 337zM1147 379q0 -41 -32.5 -70t-73.5 -29q-26 0 -78 32q-40 26 -77 50q-16 8 -108 56q-12 -130 -99 -130q-42 0 -74 32t-32 74q0 39 4.5 118t4.5 118v215q-48 0 -79.5 28t-31.5 72q0 77 120 115q83 27 182 27q138 0 227 -61q104 -70 104 -202 q0 -155 -188 -257q113 -50 144 -70q87 -55 87 -118zM903 843q0 56 -74 56q6 0 -47 -5v-164q121 57 121 113z" />
<glyph unicode="&#xaf;" horiz-adv-x="976" d="M780 1563q0 -44 -29 -75t-73 -31q-69 0 -204.5 -3t-203.5 -3q-43 0 -73.5 30.5t-30.5 71.5q0 113 512 113q44 0 73 -29t29 -74z" />
<glyph unicode="&#xb0;" horiz-adv-x="985" d="M831 1041q0 -131 -102 -215q-96 -80 -229 -80q-131 0 -239 89q-113 93 -113 223q0 120 96.5 213.5t216.5 93.5q148 0 256 -85q114 -94 114 -239zM623 1036q0 58 -48.5 90.5t-108.5 32.5q-36 0 -72 -31.5t-36 -67.5q0 -55 37.5 -89t94.5 -34q44 0 88.5 28t44.5 71z" />
<glyph unicode="&#xb1;" horiz-adv-x="1094" d="M986 736q0 -101 -102 -101q-12 0 -34 1.5t-34 1.5h-161q0 -17 2 -42v-38q0 -145 -104 -145q-75 0 -97 63q-11 33 -11 144q-138 -9 -225 -9q-44 0 -72.5 29t-28.5 73q0 45 28.5 75.5t72.5 30.5q80 0 219 9q-2 22 -11 95q-6 60 -6 98q0 39 33 69t72 30q81 0 104 -106 q6 -24 16 -174q97 5 169 5q82 0 116 -16q54 -23 54 -93zM986 123q0 -44 -28 -74t-72 -30q-96 0 -285.5 -9.5t-284.5 -9.5q-195 0 -195 111q0 39 29 71.5t68 32.5q23 0 64.5 -2.5t63.5 -2.5q91 0 270 9.5t270 9.5q44 0 72 -31t28 -75z" />
<glyph unicode="&#xb4;" horiz-adv-x="560" d="M469 1758q0 -34 -30 -77q-36 -49 -151 -177q-47 -53 -90 -53t-73.5 33t-30.5 76q0 34 83 140q74 92 117 130q34 29 70 29q42 0 73.5 -29t31.5 -72z" />
<glyph unicode="&#xb6;" horiz-adv-x="1335" d="M1179 1258q0 -50 -38 -74.5t-88 -17.5v-326q-17 -253 -19 -325q86 -15 86 -93q0 -40 -26 -70.5t-65 -34.5q-7 -298 -7 -387q0 -200 -107 -200q-41 0 -71 31t-30 72v275q14 78 14 223q-75 10 -154 26v-422q-5 -176 -113 -176q-98 0 -98 96v253q10 90 10 302 q-396 133 -396 390q0 275 345 436q276 129 587 129q170 0 170 -107zM845 1152q-84 -10 -159 -31q-3 -186 -3 -556q70 -17 148 -29q2 85 2 307q12 210 12 309zM483 1043q-201 -108 -201 -220q0 -64 70 -125q56 -48 128 -75q3 224 3 420z" />
<glyph unicode="&#xb7;" horiz-adv-x="563" d="M389 620q0 -52 -34 -90t-85 -38q-50 0 -91.5 34.5t-41.5 84.5q0 46 49.5 90.5t95.5 44.5q107 0 107 -126z" />
<glyph unicode="&#xbb;" horiz-adv-x="1500" d="M1386 597q0 -105 -171 -233q-112 -86 -266 -161q-36 -17 -53 -17q-43 0 -72.5 35t-29.5 78q0 42 51 82q34 27 167 102q106 60 157 116q-85 72 -142 111l-150 102q-92 74 -92 140q0 43 32.5 72t75.5 29q32 0 66 -30t103 -84l204 -140q120 -98 120 -202zM785 524 q0 -150 -442 -362q-36 -17 -53 -17q-43 0 -72.5 35t-29.5 78q0 44 51 82q32 24 167 102q106 60 157 116q-85 72 -141 111q-76 51 -151 102q-92 74 -92 140q0 43 32.5 72t75.5 29q32 0 66 -30t103 -84q148 -110 191 -147q104 -96 133 -195q5 -17 5 -32z" />
<glyph unicode="&#xbf;" horiz-adv-x="1113" d="M922 1080q0 -51 -43 -97t-94 -46q-48 0 -78.5 42.5t-30.5 92.5q0 51 41.5 87t93.5 36q44 0 77.5 -35t33.5 -80zM903 -29q19 -142 -360 -142q-197 0 -328 55q-186 75 -186 241q0 158 145 250q29 19 283 123q166 69 195 161q10 30 10 70q0 39 31.5 64.5t69.5 25.5 q101 0 101 -136q0 -174 -178 -289q-123 -56 -247 -111q-192 -88 -192 -138q0 -80 98 -106q49 -13 160 -13q116 0 299 44q13 3 20 3q34 0 56.5 -33t22.5 -69z" />
<glyph unicode="&#xc0;" d="M65 0zM947 99q0 -43 -32.5 -71t-74.5 -28q-53 0 -75 41q-4 5 -31 85q-80 241 -415 306q-17 -84 -41 -251q-2 -38 -17 -109q-27 -72 -97 -72q-43 0 -71 32.5t-28 75.5q0 252 106.5 581.5t253.5 535.5q101 140 222 140q273 0 273 -621q0 -29 -2 -90v-89q0 -70 4 -126 q1 -35 15 -169q10 -106 10 -171zM720 476v400q-13 83 -15 112q-5 65 -19 113q-17 60 -41 60q-48 0 -153 -195q-84 -154 -130 -336q205 -41 358 -154zM856 1560q0 -43 -29.5 -76t-72.5 -33q-46 0 -94 53q-39 44 -92 122q-65 96 -65 130q0 41 34 70t77 29q46 0 85 -48 q157 -189 157 -247z" />
<glyph unicode="&#xc1;" d="M65 0zM947 99q0 -43 -32.5 -71t-74.5 -28q-53 0 -75 41q-4 5 -31 85q-80 241 -415 306q-17 -84 -41 -251q-2 -38 -17 -109q-27 -72 -97 -72q-43 0 -71 32.5t-28 75.5q0 252 106.5 581.5t253.5 535.5q101 140 222 140q273 0 273 -621q0 -29 -2 -90v-89q0 -70 4 -126 q1 -35 15 -169q10 -106 10 -171zM720 476v400q-13 83 -15 112q-5 65 -19 113q-17 60 -41 60q-48 0 -153 -195q-84 -154 -130 -336q205 -41 358 -154zM1053 1758q0 -34 -30 -77q-36 -49 -151 -177q-47 -53 -90 -53t-73.5 33t-30.5 76q0 34 83 140q74 92 117 130q34 29 70 29 q42 0 73.5 -29t31.5 -72z" />
<glyph unicode="&#xc2;" d="M65 0zM947 99q0 -43 -32.5 -71t-74.5 -28q-53 0 -75 41q-4 5 -31 85q-80 241 -415 306q-17 -84 -41 -251q-2 -38 -17 -109q-27 -72 -97 -72q-43 0 -71 32.5t-28 75.5q0 252 106.5 581.5t253.5 535.5q101 140 222 140q273 0 273 -621q0 -29 -2 -90v-89q0 -70 4 -126 q1 -35 15 -169q10 -106 10 -171zM720 476v400q-13 83 -15 112q-5 65 -19 113q-17 60 -41 60q-48 0 -153 -195q-84 -154 -130 -336q205 -41 358 -154zM1202 1560q0 -43 -29 -76t-72 -33q-37 0 -124 105q-55 70 -111 142q-10 -8 -115 -136q-85 -106 -114 -106q-43 0 -77 30 t-34 70q0 77 127 202.5t204 125.5q80 0 176 -94q32 -32 137 -160q32 -39 32 -70z" />
<glyph unicode="&#xc3;" d="M65 0zM947 99q0 -43 -32.5 -71t-74.5 -28q-53 0 -75 41q-4 5 -31 85q-80 241 -415 306q-17 -84 -41 -251q-2 -38 -17 -109q-27 -72 -97 -72q-43 0 -71 32.5t-28 75.5q0 252 106.5 581.5t253.5 535.5q101 140 222 140q273 0 273 -621q0 -29 -2 -90v-89q0 -70 4 -126 q1 -35 15 -169q10 -106 10 -171zM720 476v400q-13 83 -15 112q-5 65 -19 113q-17 60 -41 60q-48 0 -153 -195q-84 -154 -130 -336q205 -41 358 -154zM1289 1734q0 -125 -86.5 -204t-212.5 -79q-63 0 -104 49q-2 2 -58 94q-32 50 -68 50q-46 0 -88 -84.5t-69 -84.5 q-41 0 -73.5 29t-32.5 68q0 109 72.5 180t183.5 71q84 0 133 -46q19 -19 60 -89q29 -46 60 -46q46 0 64 49q16 45 31 89q26 50 87 50q41 0 71 -27.5t30 -68.5z" />
<glyph unicode="&#xc4;" horiz-adv-x="1079" d="M65 0zM947 99q0 -43 -32.5 -71t-74.5 -28q-53 0 -75 41q-4 5 -31 85q-80 241 -415 306q-17 -84 -41 -251q-2 -38 -17 -109q-27 -72 -97 -72q-43 0 -71 32.5t-28 75.5q0 252 106.5 581.5t253.5 535.5q101 140 222 140q273 0 273 -621q0 -29 -2 -90v-89q0 -70 4 -126 q1 -35 15 -169q10 -106 10 -171zM720 476v400q-13 83 -15 112q-5 65 -19 113q-17 60 -41 60q-48 0 -153 -195q-84 -154 -130 -336q205 -41 358 -154zM1229 1596q0 -51 -30 -89.5t-80 -38.5q-51 0 -97 35t-46 84q0 46 49.5 90.5t95.5 44.5q108 0 108 -126zM814 1579 q0 -50 -36 -89t-85 -39q-48 0 -86.5 33t-38.5 79q0 55 27.5 95t80.5 40q49 0 93.5 -36t44.5 -83z" />
<glyph unicode="&#xc5;" d="M65 0zM947 99q0 -43 -32.5 -71t-74.5 -28q-53 0 -75 41q-4 5 -31 85q-80 241 -415 306q-17 -84 -41 -251q-2 -38 -17 -109q-27 -72 -97 -72q-43 0 -71 32.5t-28 75.5q0 252 106.5 581.5t253.5 535.5q101 140 222 140q273 0 273 -621q0 -29 -2 -90v-89q0 -70 4 -126 q1 -35 15 -169q10 -106 10 -171zM720 476v400q-13 83 -15 112q-5 65 -19 113q-17 60 -41 60q-48 0 -153 -195q-84 -154 -130 -336q205 -41 358 -154zM1067 1746q0 -131 -102 -215q-96 -80 -229 -80q-131 0 -239 88q-113 94 -113 224q0 119 96.5 213t216.5 94q148 0 256 -85 q114 -94 114 -239zM859 1741q0 58 -48.5 90.5t-108.5 32.5q-36 0 -72 -31.5t-36 -67.5q0 -55 37.5 -89t94.5 -34q44 0 88.5 28t44.5 71z" />
<glyph unicode="&#xc6;" horiz-adv-x="1841" d="M1743 1258q0 -38 -28.5 -68.5t-65.5 -30.5q-23 0 -67 3.5t-66 3.5q-127 0 -263 -28q-12 -126 -65 -297q211 82 293 82q41 0 71 -28t30 -69q0 -58 -73.5 -97.5t-190.5 -71.5q-99 -29 -198 -56q-2 -51 -24.5 -153t-22.5 -154q0 -96 67 -96q72 0 217 89.5t215 89.5 q39 0 67 -28t28 -67q0 -43 -49 -89q-68 -62 -237 -127.5t-261 -65.5q-96 0 -157 51q-36 -51 -89 -51q-58 0 -92 80q-31 74 -60 145q-31 57 -114 113q-110 73 -258 97q-9 -42 -21 -130q-5 -59 -10 -119q-8 -73 -27 -114q-33 -72 -101 -72q-94 0 -94 104q0 9 2 21 q58 416 162 727q172 513 413 513q167 0 236 -232q44 -147 44 -368q21 66 53 199q14 96 29 191q26 118 90 159q82 51 422 51q195 0 195 -107zM753 713q0 331 -77 451q-92 -51 -179 -241q-67 -141 -106 -293q210 -45 360 -152v118q2 73 2 117z" />
<glyph unicode="&#xc8;" horiz-adv-x="884" d="M113 0zM986 1258q0 -39 -29.5 -70t-69.5 -31q-22 0 -68 3.5t-68 3.5q-125 0 -261 -27q-16 -89 -68 -297q218 85 300 85q41 0 71 -27.5t30 -68.5q0 -64 -74 -99q-22 -10 -124 -41q-53 -15 -265 -88q-44 -179 -44 -314q0 -87 30 -87q99 0 256 90.5t205 90.5q40 0 70.5 -30 t30.5 -69q0 -45 -51 -87q-75 -64 -239 -129.5t-256 -65.5q-126 0 -191 85q-58 77 -58 209q0 179 76 457q96 348 111 452q9 62 14 72q10 19 60 41q107 49 420 49q192 0 192 -107zM774 1560q0 -43 -29.5 -76t-72.5 -33q-46 0 -94 53q-39 44 -92 122q-65 96 -65 130q0 41 34 70 t77 29q46 0 85 -48q157 -189 157 -247z" />
<glyph unicode="&#xc9;" horiz-adv-x="884" d="M113 0zM986 1258q0 -39 -29.5 -70t-69.5 -31q-22 0 -68 3.5t-68 3.5q-125 0 -261 -27q-16 -89 -68 -297q218 85 300 85q41 0 71 -27.5t30 -68.5q0 -64 -74 -99q-22 -10 -124 -41q-53 -15 -265 -88q-44 -179 -44 -314q0 -87 30 -87q99 0 256 90.5t205 90.5q40 0 70.5 -30 t30.5 -69q0 -45 -51 -87q-75 -64 -239 -129.5t-256 -65.5q-126 0 -191 85q-58 77 -58 209q0 179 76 457q96 348 111 452q9 62 14 72q10 19 60 41q107 49 420 49q192 0 192 -107zM853 1758q0 -34 -30 -77q-36 -49 -151 -177q-47 -53 -90 -53t-73.5 33t-30.5 76q0 34 83 140 q74 92 117 130q34 29 70 29q42 0 73.5 -29t31.5 -72z" />
<glyph unicode="&#xca;" horiz-adv-x="905" d="M113 0zM986 1258q0 -39 -29.5 -70t-69.5 -31q-22 0 -68 3.5t-68 3.5q-125 0 -261 -27q-16 -89 -68 -297q218 85 300 85q41 0 71 -27.5t30 -68.5q0 -64 -74 -99q-22 -10 -124 -41q-53 -15 -265 -88q-44 -179 -44 -314q0 -87 30 -87q99 0 256 90.5t205 90.5q40 0 70.5 -30 t30.5 -69q0 -45 -51 -87q-75 -64 -239 -129.5t-256 -65.5q-126 0 -191 85q-58 77 -58 209q0 179 76 457q96 348 111 452q9 62 14 72q10 19 60 41q107 49 420 49q192 0 192 -107zM1041 1560q0 -43 -29 -76t-72 -33q-37 0 -124 105q-55 70 -111 142q-10 -8 -115 -136 q-85 -106 -114 -106q-43 0 -77 30t-34 70q0 77 127 202.5t204 125.5q80 0 176 -94q32 -32 137 -160q32 -39 32 -70z" />
<glyph unicode="&#xcb;" horiz-adv-x="879" d="M113 0zM986 1258q0 -39 -29.5 -70t-69.5 -31q-22 0 -68 3.5t-68 3.5q-125 0 -261 -27q-16 -89 -68 -297q218 85 300 85q41 0 71 -27.5t30 -68.5q0 -64 -74 -99q-22 -10 -124 -41q-53 -15 -265 -88q-44 -179 -44 -314q0 -87 30 -87q99 0 256 90.5t205 90.5q40 0 70.5 -30 t30.5 -69q0 -45 -51 -87q-75 -64 -239 -129.5t-256 -65.5q-126 0 -191 85q-58 77 -58 209q0 179 76 457q96 348 111 452q9 62 14 72q10 19 60 41q107 49 420 49q192 0 192 -107zM1106 1596q0 -51 -30 -89.5t-80 -38.5q-51 0 -97 35t-46 84q0 46 49.5 90.5t95.5 44.5 q108 0 108 -126zM691 1579q0 -50 -36 -89t-85 -39q-48 0 -86.5 33t-38.5 79q0 55 27.5 95t80.5 40q49 0 93.5 -36t44.5 -83z" />
<glyph unicode="&#xcc;" horiz-adv-x="608" d="M101 0zM686 1254q0 -41 -30 -70.5t-71 -29.5q-30 0 -97 8q-22 -411 -22 -537v-410q26 2 36 2q42 0 74 -27.5t32 -68.5q0 -73 -72 -99q-15 -5 -133 -22q-31 -5 -161 -34q-22 -5 -32 -5q-39 0 -65 31.5t-26 70.5q0 92 159 120q-15 317 -15 413q0 201 22 563 q-51 -10 -82 -10q-41 0 -71.5 28t-30.5 69q0 121 249 121q19 0 56 -2h58q222 0 222 -111zM527 1560q0 -43 -29.5 -76t-72.5 -33q-46 0 -94 53q-39 44 -92 122q-65 96 -65 130q0 41 34 70t77 29q46 0 85 -48q157 -189 157 -247z" />
<glyph unicode="&#xcd;" horiz-adv-x="621" d="M101 0zM686 1254q0 -41 -30 -70.5t-71 -29.5q-30 0 -97 8q-22 -411 -22 -537v-410q26 2 36 2q42 0 74 -27.5t32 -68.5q0 -73 -72 -99q-15 -5 -133 -22q-31 -5 -161 -34q-22 -5 -32 -5q-39 0 -65 31.5t-26 70.5q0 92 159 120q-15 317 -15 413q0 201 22 563 q-51 -10 -82 -10q-41 0 -71.5 28t-30.5 69q0 121 249 121q19 0 56 -2h58q222 0 222 -111zM645 1758q0 -34 -30 -77q-36 -49 -151 -177q-47 -53 -90 -53t-73.5 33t-30.5 76q0 34 83 140q74 92 117 130q34 29 70 29q42 0 73.5 -29t31.5 -72z" />
<glyph unicode="&#xce;" horiz-adv-x="621" d="M101 0zM686 1254q0 -41 -30 -70.5t-71 -29.5q-30 0 -97 8q-22 -411 -22 -537v-410q26 2 36 2q42 0 74 -27.5t32 -68.5q0 -73 -72 -99q-15 -5 -133 -22q-31 -5 -161 -34q-22 -5 -32 -5q-39 0 -65 31.5t-26 70.5q0 92 159 120q-15 317 -15 413q0 201 22 563 q-51 -10 -82 -10q-41 0 -71.5 28t-30.5 69q0 121 249 121q19 0 56 -2h58q222 0 222 -111zM788 1560q0 -43 -29 -76t-72 -33q-37 0 -124 105q-55 70 -111 142q-10 -8 -115 -136q-85 -106 -114 -106q-43 0 -77 30t-34 70q0 77 127 202.5t204 125.5q80 0 176 -94 q32 -32 137 -160q32 -39 32 -70z" />
<glyph unicode="&#xcf;" horiz-adv-x="621" d="M101 0zM686 1254q0 -41 -30 -70.5t-71 -29.5q-30 0 -97 8q-22 -411 -22 -537v-410q26 2 36 2q42 0 74 -27.5t32 -68.5q0 -73 -72 -99q-15 -5 -133 -22q-31 -5 -161 -34q-22 -5 -32 -5q-39 0 -65 31.5t-26 70.5q0 92 159 120q-15 317 -15 413q0 201 22 563 q-51 -10 -82 -10q-41 0 -71.5 28t-30.5 69q0 121 249 121q19 0 56 -2h58q222 0 222 -111zM835 1596q0 -51 -30 -89.5t-80 -38.5q-51 0 -97 35t-46 84q0 46 49.5 90.5t95.5 44.5q108 0 108 -126zM420 1579q0 -50 -36 -89t-85 -39q-48 0 -86.5 33t-38.5 79q0 55 27.5 95 t80.5 40q49 0 93.5 -36t44.5 -83z" />
<glyph unicode="&#xd1;" horiz-adv-x="1198" d="M106 0zM1109 628q0 -176 -54 -328q-110 -305 -325 -305q-300 0 -389 575q-24 -184 -24 -360q0 -210 -112 -210q-41 0 -70 28t-29 69q0 260 48 615q56 425 138 582q37 71 94 71q78 0 104 -99q8 -32 8 -213q12 -229 55 -481q65 -379 172 -379q89 0 142 181q41 138 41 257 q0 108 -40 318t-40 314q0 43 27 72.5t68 29.5q65 0 99 -73q24 -51 36 -147q9 -75 15 -152q36 -329 36 -365zM1270 1734q0 -125 -86.5 -204t-212.5 -79q-63 0 -104 49q-2 2 -58 94q-32 50 -68 50q-46 0 -88 -84.5t-69 -84.5q-41 0 -73.5 29t-32.5 68q0 109 72.5 180t183.5 71 q84 0 133 -46q19 -19 60 -89q29 -46 60 -46q46 0 64 49q16 45 31 89q26 50 87 50q41 0 71 -27.5t30 -68.5z" />
<glyph unicode="&#xd2;" horiz-adv-x="1128" d="M96 0zM1126 807q0 -275 -151 -522q-175 -285 -432 -285q-212 0 -336 186q-111 162 -111 384q0 287 112 512q142 282 400 282q245 0 385 -157q133 -151 133 -400zM927 814q0 347 -350 347q-121 0 -210 -243q-72 -198 -72 -348q0 -241 142 -333q53 -34 101 -34 q169 0 286 229q103 196 103 382zM785 1560q0 -43 -29.5 -76t-72.5 -33q-46 0 -94 53q-39 44 -92 122q-65 96 -65 130q0 41 34 70t77 29q46 0 85 -48q157 -189 157 -247z" />
<glyph unicode="&#xd3;" horiz-adv-x="1128" d="M96 0zM1126 807q0 -275 -151 -522q-175 -285 -432 -285q-212 0 -336 186q-111 162 -111 384q0 287 112 512q142 282 400 282q245 0 385 -157q133 -151 133 -400zM927 814q0 347 -350 347q-121 0 -210 -243q-72 -198 -72 -348q0 -241 142 -333q53 -34 101 -34 q169 0 286 229q103 196 103 382zM978 1758q0 -34 -30 -77q-36 -49 -151 -177q-47 -53 -90 -53t-73.5 33t-30.5 76q0 34 83 140q74 92 117 130q34 29 70 29q42 0 73.5 -29t31.5 -72z" />
<glyph unicode="&#xd4;" horiz-adv-x="1128" d="M96 0zM1126 807q0 -275 -151 -522q-175 -285 -432 -285q-212 0 -336 186q-111 162 -111 384q0 287 112 512q142 282 400 282q245 0 385 -157q133 -151 133 -400zM927 814q0 347 -350 347q-121 0 -210 -243q-72 -198 -72 -348q0 -241 142 -333q53 -34 101 -34 q169 0 286 229q103 196 103 382zM1087 1560q0 -43 -29 -76t-72 -33q-37 0 -124 105q-55 70 -111 142q-10 -8 -115 -136q-85 -106 -114 -106q-43 0 -77 30t-34 70q0 77 127 202.5t204 125.5q80 0 176 -94q32 -32 137 -160q32 -39 32 -70z" />
<glyph unicode="&#xd5;" horiz-adv-x="1137" d="M96 0zM1126 807q0 -275 -151 -522q-175 -285 -432 -285q-212 0 -336 186q-111 162 -111 384q0 287 112 512q142 282 400 282q245 0 385 -157q133 -151 133 -400zM927 814q0 347 -350 347q-121 0 -210 -243q-72 -198 -72 -348q0 -241 142 -333q53 -34 101 -34 q169 0 286 229q103 196 103 382zM1226 1734q0 -125 -86.5 -204t-212.5 -79q-63 0 -104 49q-2 2 -58 94q-32 50 -68 50q-46 0 -88 -84.5t-69 -84.5q-41 0 -73.5 29t-32.5 68q0 109 72.5 180t183.5 71q84 0 133 -46q19 -19 60 -89q29 -46 60 -46q46 0 64 49q16 45 31 89 q26 50 87 50q41 0 71 -27.5t30 -68.5z" />
<glyph unicode="&#xd6;" horiz-adv-x="1138" d="M96 0zM1126 807q0 -275 -151 -522q-175 -285 -432 -285q-212 0 -336 186q-111 162 -111 384q0 287 112 512q142 282 400 282q245 0 385 -157q133 -151 133 -400zM927 814q0 347 -350 347q-121 0 -210 -243q-72 -198 -72 -348q0 -241 142 -333q53 -34 101 -34 q169 0 286 229q103 196 103 382zM1130 1596q0 -51 -30 -89.5t-80 -38.5q-51 0 -97 35t-46 84q0 46 49.5 90.5t95.5 44.5q108 0 108 -126zM715 1579q0 -50 -36 -89t-85 -39q-48 0 -86.5 33t-38.5 79q0 55 27.5 95t80.5 40q49 0 93.5 -36t44.5 -83z" />
<glyph unicode="&#xd7;" horiz-adv-x="1162" d="M986 643q0 -37 -30 -71q-38 -41 -101 -94q-55 -43 -107 -85q69 -60 201 -190q31 -36 31 -72q0 -42 -30 -73.5t-73 -31.5q-37 0 -77 29q-47 35 -109 97q-49 53 -100 106q-74 -79 -227 -227q-35 -31 -69 -31q-42 0 -74.5 30t-32.5 72q0 57 104 161q10 12 152 140 q-65 53 -185 169q-30 34 -30 71q0 43 29.5 74t72.5 31q38 0 77 -28q31 -22 193 -179q66 63 210 179q39 28 75 28q42 0 71 -31t29 -74z" />
<glyph unicode="&#xd8;" horiz-adv-x="1207" d="M1123 807q0 -275 -152 -522q-174 -285 -432 -285q-100 0 -186 46q-51 -118 -117 -118q-40 0 -72.5 26.5t-32.5 65.5q0 45 62 181q-101 161 -101 369q0 287 113 512q141 282 399 282q94 0 174 -24q60 128 125 128q39 0 69 -31.5t30 -71.5q0 -15 -51 -119 q172 -152 172 -439zM923 814q0 143 -68 232q-145 -297 -410 -817q43 -26 89 -26q169 0 287 229q102 196 102 382zM678 1150q-52 11 -105 11q-121 0 -209 -243q-72 -198 -72 -348q0 -70 13 -131q113 225 373 711z" />
<glyph unicode="&#xd9;" horiz-adv-x="1132" d="M111 0zM1027 1015q0 -411 -61 -631q-109 -384 -413 -384q-254 0 -365 270q-77 189 -77 488q0 433 53 534q39 73 99 73q41 0 70 -31.5t29 -72.5q0 -22 -26 -162q-22 -121 -22 -351q0 -192 41 -332q61 -216 201 -216q157 0 226 293q44 186 44 422q0 58 -10 172t-10 173 q0 42 26 73.5t69 31.5q65 0 99 -73q27 -58 27 -277zM788 1560q0 -43 -29.5 -76t-72.5 -33q-46 0 -94 53q-39 44 -92 122q-65 96 -65 130q0 41 34 70t77 29q46 0 85 -48q157 -189 157 -247z" />
<glyph unicode="&#xda;" horiz-adv-x="1080" d="M111 0zM1027 1015q0 -411 -61 -631q-109 -384 -413 -384q-254 0 -365 270q-77 189 -77 488q0 433 53 534q39 73 99 73q41 0 70 -31.5t29 -72.5q0 -22 -26 -162q-22 -121 -22 -351q0 -192 41 -332q61 -216 201 -216q157 0 226 293q44 186 44 422q0 58 -10 172t-10 173 q0 42 26 73.5t69 31.5q65 0 99 -73q27 -58 27 -277zM911 1758q0 -34 -30 -77q-36 -49 -151 -177q-47 -53 -90 -53t-73.5 33t-30.5 76q0 34 83 140q74 92 117 130q34 29 70 29q42 0 73.5 -29t31.5 -72z" />
<glyph unicode="&#xdb;" horiz-adv-x="1080" d="M111 0zM1027 1015q0 -411 -61 -631q-109 -384 -413 -384q-254 0 -365 270q-77 189 -77 488q0 433 53 534q39 73 99 73q41 0 70 -31.5t29 -72.5q0 -22 -26 -162q-22 -121 -22 -351q0 -192 41 -332q61 -216 201 -216q157 0 226 293q44 186 44 422q0 58 -10 172t-10 173 q0 42 26 73.5t69 31.5q65 0 99 -73q27 -58 27 -277zM1041 1560q0 -43 -29 -76t-72 -33q-37 0 -124 105q-55 70 -111 142q-10 -8 -115 -136q-85 -106 -114 -106q-43 0 -77 30t-34 70q0 77 127 202.5t204 125.5q80 0 176 -94q32 -32 137 -160q32 -39 32 -70z" />
<glyph unicode="&#xdc;" horiz-adv-x="1082" d="M111 0zM1027 1015q0 -411 -61 -631q-109 -384 -413 -384q-254 0 -365 270q-77 189 -77 488q0 433 53 534q39 73 99 73q41 0 70 -31.5t29 -72.5q0 -22 -26 -162q-22 -121 -22 -351q0 -192 41 -332q61 -216 201 -216q157 0 226 293q44 186 44 422q0 58 -10 172t-10 173 q0 42 26 73.5t69 31.5q65 0 99 -73q27 -58 27 -277zM1098 1596q0 -51 -30 -89.5t-80 -38.5q-51 0 -97 35t-46 84q0 46 49.5 90.5t95.5 44.5q108 0 108 -126zM683 1579q0 -50 -36 -89t-85 -39q-48 0 -86.5 33t-38.5 79q0 55 27.5 95t80.5 40q49 0 93.5 -36t44.5 -83z" />
<glyph unicode="&#xdd;" horiz-adv-x="1161" d="M68 0zM1039 983q0 -340 -41 -509q-68 -281 -271 -414q-90 -60 -193 -60q-42 0 -73 26.5t-31 69.5q0 68 58 93q58 16 114 33q207 82 207 522q-106 -237 -321 -237q-256 0 -355 261q-65 171 -65 478q0 119 101 119q87 0 106 -134q10 -137 22 -275q22 -169 113 -226 q37 -23 66 -23q38 0 87 27q89 48 154 181q53 107 77 232q5 39 25 113q29 71 94 71q72 0 102 -97q24 -75 24 -251zM884 1758q0 -34 -30 -77q-36 -49 -151 -177q-47 -53 -90 -53t-73.5 33t-30.5 76q0 34 83 140q74 92 117 130q34 29 70 29q42 0 73.5 -29t31.5 -72z" />
<glyph unicode="&#xde;" horiz-adv-x="1135" d="M1104 835q0 -210 -244 -374q-193 -130 -438 -181q-4 -34 -6 -99q-3 -89 -15 -121q-22 -60 -94 -60q-41 0 -70 30t-29 71q0 157 19 437q19 309 19 437q-57 34 -57 98q0 59 57 82q-2 86 -2 108q0 44 30.5 73t75.5 29q44 0 73 -29t29 -73q0 -22 -1 -70q49 2 81 2 q221 0 373 -72q199 -94 199 -288zM903 840q0 88 -161 128q-102 24 -233 24q-31 0 -60 -2q-2 -198 -2 -500q150 46 277 119q179 108 179 231z" />
<glyph unicode="&#xdf;" horiz-adv-x="1082" d="M1000 381q0 -338 -512 -376l21 -249q0 -97 -103 -97q-44 0 -73 28t-50 320q-75 17 -75 94q0 63 62 94q-9 145 -40 433q0 3 -46 241q-27 143 -27 242q0 254 280 254q102 0 213 -34q125 -37 188 -99q84 -82 84 -203q0 -169 -180 -290q258 -118 258 -358zM722 1027 q-10 67 -123 108q-89 31 -174 31q-34 0 -63 -9q-5 -20 -5 -41q0 -85 39 -281q285 59 326 192zM799 389q0 152 -369 241q29 -217 43 -427q102 10 198 53q128 55 128 133z" />
<glyph unicode="&#xe0;" d="M65 0zM947 99q0 -43 -32.5 -71t-74.5 -28q-53 0 -75 41q-4 5 -31 85q-80 241 -415 306q-17 -84 -41 -251q-2 -38 -17 -109q-27 -72 -97 -72q-43 0 -71 32.5t-28 75.5q0 252 106.5 581.5t253.5 535.5q101 140 222 140q273 0 273 -621q0 -29 -2 -90v-89q0 -70 4 -126 q1 -35 15 -169q10 -106 10 -171zM720 476v400q-13 83 -15 112q-5 65 -19 113q-17 60 -41 60q-48 0 -153 -195q-84 -154 -130 -336q205 -41 358 -154zM856 1560q0 -43 -29.5 -76t-72.5 -33q-46 0 -94 53q-39 44 -92 122q-65 96 -65 130q0 41 34 70t77 29q46 0 85 -48 q157 -189 157 -247z" />
<glyph unicode="&#xe1;" d="M65 0zM947 99q0 -43 -32.5 -71t-74.5 -28q-53 0 -75 41q-4 5 -31 85q-80 241 -415 306q-17 -84 -41 -251q-2 -38 -17 -109q-27 -72 -97 -72q-43 0 -71 32.5t-28 75.5q0 252 106.5 581.5t253.5 535.5q101 140 222 140q273 0 273 -621q0 -29 -2 -90v-89q0 -70 4 -126 q1 -35 15 -169q10 -106 10 -171zM720 476v400q-13 83 -15 112q-5 65 -19 113q-17 60 -41 60q-48 0 -153 -195q-84 -154 -130 -336q205 -41 358 -154zM1053 1758q0 -34 -30 -77q-36 -49 -151 -177q-47 -53 -90 -53t-73.5 33t-30.5 76q0 34 83 140q74 92 117 130q34 29 70 29 q42 0 73.5 -29t31.5 -72z" />
<glyph unicode="&#xe2;" d="M65 0zM947 99q0 -43 -32.5 -71t-74.5 -28q-53 0 -75 41q-4 5 -31 85q-80 241 -415 306q-17 -84 -41 -251q-2 -38 -17 -109q-27 -72 -97 -72q-43 0 -71 32.5t-28 75.5q0 252 106.5 581.5t253.5 535.5q101 140 222 140q273 0 273 -621q0 -29 -2 -90v-89q0 -70 4 -126 q1 -35 15 -169q10 -106 10 -171zM720 476v400q-13 83 -15 112q-5 65 -19 113q-17 60 -41 60q-48 0 -153 -195q-84 -154 -130 -336q205 -41 358 -154zM1202 1560q0 -43 -29 -76t-72 -33q-37 0 -124 105q-55 70 -111 142q-10 -8 -115 -136q-85 -106 -114 -106q-43 0 -77 30 t-34 70q0 77 127 202.5t204 125.5q80 0 176 -94q32 -32 137 -160q32 -39 32 -70z" />
<glyph unicode="&#xe3;" d="M65 0zM947 99q0 -43 -32.5 -71t-74.5 -28q-53 0 -75 41q-4 5 -31 85q-80 241 -415 306q-17 -84 -41 -251q-2 -38 -17 -109q-27 -72 -97 -72q-43 0 -71 32.5t-28 75.5q0 252 106.5 581.5t253.5 535.5q101 140 222 140q273 0 273 -621q0 -29 -2 -90v-89q0 -70 4 -126 q1 -35 15 -169q10 -106 10 -171zM720 476v400q-13 83 -15 112q-5 65 -19 113q-17 60 -41 60q-48 0 -153 -195q-84 -154 -130 -336q205 -41 358 -154zM1289 1734q0 -125 -86.5 -204t-212.5 -79q-63 0 -104 49q-2 2 -58 94q-32 50 -68 50q-46 0 -88 -84.5t-69 -84.5 q-41 0 -73.5 29t-32.5 68q0 109 72.5 180t183.5 71q84 0 133 -46q19 -19 60 -89q29 -46 60 -46q46 0 64 49q16 45 31 89q26 50 87 50q41 0 71 -27.5t30 -68.5z" />
<glyph unicode="&#xe4;" horiz-adv-x="1079" d="M65 0zM947 99q0 -43 -32.5 -71t-74.5 -28q-53 0 -75 41q-4 5 -31 85q-80 241 -415 306q-17 -84 -41 -251q-2 -38 -17 -109q-27 -72 -97 -72q-43 0 -71 32.5t-28 75.5q0 252 106.5 581.5t253.5 535.5q101 140 222 140q273 0 273 -621q0 -29 -2 -90v-89q0 -70 4 -126 q1 -35 15 -169q10 -106 10 -171zM720 476v400q-13 83 -15 112q-5 65 -19 113q-17 60 -41 60q-48 0 -153 -195q-84 -154 -130 -336q205 -41 358 -154zM1229 1596q0 -51 -30 -89.5t-80 -38.5q-51 0 -97 35t-46 84q0 46 49.5 90.5t95.5 44.5q108 0 108 -126zM814 1579 q0 -50 -36 -89t-85 -39q-48 0 -86.5 33t-38.5 79q0 55 27.5 95t80.5 40q49 0 93.5 -36t44.5 -83z" />
<glyph unicode="&#xe5;" d="M65 0zM947 99q0 -43 -32.5 -71t-74.5 -28q-53 0 -75 41q-4 5 -31 85q-80 241 -415 306q-17 -84 -41 -251q-2 -38 -17 -109q-27 -72 -97 -72q-43 0 -71 32.5t-28 75.5q0 252 106.5 581.5t253.5 535.5q101 140 222 140q273 0 273 -621q0 -29 -2 -90v-89q0 -70 4 -126 q1 -35 15 -169q10 -106 10 -171zM720 476v400q-13 83 -15 112q-5 65 -19 113q-17 60 -41 60q-48 0 -153 -195q-84 -154 -130 -336q205 -41 358 -154zM1067 1746q0 -131 -102 -215q-96 -80 -229 -80q-131 0 -239 88q-113 94 -113 224q0 119 96.5 213t216.5 94q148 0 256 -85 q114 -94 114 -239zM859 1741q0 58 -48.5 90.5t-108.5 32.5q-36 0 -72 -31.5t-36 -67.5q0 -55 37.5 -89t94.5 -34q44 0 88.5 28t44.5 71z" />
<glyph unicode="&#xe6;" horiz-adv-x="1841" d="M1743 1258q0 -38 -28.5 -68.5t-65.5 -30.5q-23 0 -67 3.5t-66 3.5q-127 0 -263 -28q-12 -126 -65 -297q211 82 293 82q41 0 71 -28t30 -69q0 -58 -73.5 -97.5t-190.5 -71.5q-99 -29 -198 -56q-2 -51 -24.5 -153t-22.5 -154q0 -96 67 -96q72 0 217 89.5t215 89.5 q39 0 67 -28t28 -67q0 -43 -49 -89q-68 -62 -237 -127.5t-261 -65.5q-96 0 -157 51q-36 -51 -89 -51q-58 0 -92 80q-31 74 -60 145q-31 57 -114 113q-110 73 -258 97q-9 -42 -21 -130q-5 -59 -10 -119q-8 -73 -27 -114q-33 -72 -101 -72q-94 0 -94 104q0 9 2 21 q58 416 162 727q172 513 413 513q167 0 236 -232q44 -147 44 -368q21 66 53 199q14 96 29 191q26 118 90 159q82 51 422 51q195 0 195 -107zM753 713q0 331 -77 451q-92 -51 -179 -241q-67 -141 -106 -293q210 -45 360 -152v118q2 73 2 117z" />
<glyph unicode="&#xe8;" horiz-adv-x="884" d="M113 0zM986 1258q0 -39 -29.5 -70t-69.5 -31q-22 0 -68 3.5t-68 3.5q-125 0 -261 -27q-16 -89 -68 -297q218 85 300 85q41 0 71 -27.5t30 -68.5q0 -64 -74 -99q-22 -10 -124 -41q-53 -15 -265 -88q-44 -179 -44 -314q0 -87 30 -87q99 0 256 90.5t205 90.5q40 0 70.5 -30 t30.5 -69q0 -45 -51 -87q-75 -64 -239 -129.5t-256 -65.5q-126 0 -191 85q-58 77 -58 209q0 179 76 457q96 348 111 452q9 62 14 72q10 19 60 41q107 49 420 49q192 0 192 -107zM774 1560q0 -43 -29.5 -76t-72.5 -33q-46 0 -94 53q-39 44 -92 122q-65 96 -65 130q0 41 34 70 t77 29q46 0 85 -48q157 -189 157 -247z" />
<glyph unicode="&#xe9;" horiz-adv-x="884" d="M113 0zM986 1258q0 -39 -29.5 -70t-69.5 -31q-22 0 -68 3.5t-68 3.5q-125 0 -261 -27q-16 -89 -68 -297q218 85 300 85q41 0 71 -27.5t30 -68.5q0 -64 -74 -99q-22 -10 -124 -41q-53 -15 -265 -88q-44 -179 -44 -314q0 -87 30 -87q99 0 256 90.5t205 90.5q40 0 70.5 -30 t30.5 -69q0 -45 -51 -87q-75 -64 -239 -129.5t-256 -65.5q-126 0 -191 85q-58 77 -58 209q0 179 76 457q96 348 111 452q9 62 14 72q10 19 60 41q107 49 420 49q192 0 192 -107zM853 1758q0 -34 -30 -77q-36 -49 -151 -177q-47 -53 -90 -53t-73.5 33t-30.5 76q0 34 83 140 q74 92 117 130q34 29 70 29q42 0 73.5 -29t31.5 -72z" />
<glyph unicode="&#xea;" horiz-adv-x="905" d="M113 0zM986 1258q0 -39 -29.5 -70t-69.5 -31q-22 0 -68 3.5t-68 3.5q-125 0 -261 -27q-16 -89 -68 -297q218 85 300 85q41 0 71 -27.5t30 -68.5q0 -64 -74 -99q-22 -10 -124 -41q-53 -15 -265 -88q-44 -179 -44 -314q0 -87 30 -87q99 0 256 90.5t205 90.5q40 0 70.5 -30 t30.5 -69q0 -45 -51 -87q-75 -64 -239 -129.5t-256 -65.5q-126 0 -191 85q-58 77 -58 209q0 179 76 457q96 348 111 452q9 62 14 72q10 19 60 41q107 49 420 49q192 0 192 -107zM1041 1560q0 -43 -29 -76t-72 -33q-37 0 -124 105q-55 70 -111 142q-10 -8 -115 -136 q-85 -106 -114 -106q-43 0 -77 30t-34 70q0 77 127 202.5t204 125.5q80 0 176 -94q32 -32 137 -160q32 -39 32 -70z" />
<glyph unicode="&#xeb;" horiz-adv-x="879" d="M113 0zM986 1258q0 -39 -29.5 -70t-69.5 -31q-22 0 -68 3.5t-68 3.5q-125 0 -261 -27q-16 -89 -68 -297q218 85 300 85q41 0 71 -27.5t30 -68.5q0 -64 -74 -99q-22 -10 -124 -41q-53 -15 -265 -88q-44 -179 -44 -314q0 -87 30 -87q99 0 256 90.5t205 90.5q40 0 70.5 -30 t30.5 -69q0 -45 -51 -87q-75 -64 -239 -129.5t-256 -65.5q-126 0 -191 85q-58 77 -58 209q0 179 76 457q96 348 111 452q9 62 14 72q10 19 60 41q107 49 420 49q192 0 192 -107zM1106 1596q0 -51 -30 -89.5t-80 -38.5q-51 0 -97 35t-46 84q0 46 49.5 90.5t95.5 44.5 q108 0 108 -126zM691 1579q0 -50 -36 -89t-85 -39q-48 0 -86.5 33t-38.5 79q0 55 27.5 95t80.5 40q49 0 93.5 -36t44.5 -83z" />
<glyph unicode="&#xec;" horiz-adv-x="435" d="M82 0zM370 1266q0 -148 -25 -377q-38 -322 -41 -377q-14 -174 -14 -319q0 -193 -107 -193q-40 0 -70.5 30.5t-30.5 70.5q0 158 19 392q15 195 30 391q6 96 6 193q11 113 34 189q29 99 99 99q41 0 70.5 -29t29.5 -70zM445 1560q0 -43 -29.5 -76t-72.5 -33q-46 0 -94 53 q-39 44 -92 122q-65 96 -65 130q0 41 34 70t77 29q46 0 85 -48q157 -189 157 -247z" />
<glyph unicode="&#xed;" horiz-adv-x="515" d="M82 0zM370 1266q0 -148 -25 -377q-38 -322 -41 -377q-14 -174 -14 -319q0 -193 -107 -193q-40 0 -70.5 30.5t-30.5 70.5q0 158 19 392q15 195 30 391q6 96 6 193q11 113 34 189q29 99 99 99q41 0 70.5 -29t29.5 -70zM614 1758q0 -34 -30 -77q-36 -49 -151 -177 q-47 -53 -90 -53t-73.5 33t-30.5 76q0 34 83 140q74 92 117 130q34 29 70 29q42 0 73.5 -29t31.5 -72z" />
<glyph unicode="&#xee;" horiz-adv-x="688" d="M198 0zM536 1266q0 -148 -25 -377q-38 -322 -41 -377q-14 -174 -14 -319q0 -193 -107 -193q-40 0 -70.5 30.5t-30.5 70.5q0 158 19 392q15 195 30 391q6 96 6 193q11 113 34 189q29 99 99 99q41 0 70.5 -29t29.5 -70zM874 1560q0 -43 -29 -76t-72 -33q-37 0 -124 105 q-55 70 -111 142q-10 -8 -115 -136q-85 -106 -114 -106q-43 0 -77 30t-34 70q0 77 127 202.5t204 125.5q80 0 176 -94q32 -32 137 -160q32 -39 32 -70z" />
<glyph unicode="&#xef;" horiz-adv-x="674" d="M239 0zM544 1266q0 -148 -25 -377q-38 -322 -41 -377q-14 -174 -14 -319q0 -193 -107 -193q-40 0 -70.5 30.5t-30.5 70.5q0 158 19 392q15 195 30 391q6 96 6 193q11 113 34 189q29 99 99 99q41 0 70.5 -29t29.5 -70zM900 1596q0 -51 -30 -89.5t-80 -38.5q-51 0 -97 35 t-46 84q0 46 49.5 90.5t95.5 44.5q108 0 108 -126zM485 1579q0 -50 -36 -89t-85 -39q-48 0 -86.5 33t-38.5 79q0 55 27.5 95t80.5 40q49 0 93.5 -36t44.5 -83z" />
<glyph unicode="&#xf1;" horiz-adv-x="1198" d="M106 0zM1109 628q0 -176 -54 -328q-110 -305 -325 -305q-300 0 -389 575q-24 -184 -24 -360q0 -210 -112 -210q-41 0 -70 28t-29 69q0 260 48 615q56 425 138 582q37 71 94 71q78 0 104 -99q8 -32 8 -213q12 -229 55 -481q65 -379 172 -379q89 0 142 181q41 138 41 257 q0 108 -40 318t-40 314q0 43 27 72.5t68 29.5q65 0 99 -73q24 -51 36 -147q9 -75 15 -152q36 -329 36 -365zM1270 1734q0 -125 -86.5 -204t-212.5 -79q-63 0 -104 49q-2 2 -58 94q-32 50 -68 50q-46 0 -88 -84.5t-69 -84.5q-41 0 -73.5 29t-32.5 68q0 109 72.5 180t183.5 71 q84 0 133 -46q19 -19 60 -89q29 -46 60 -46q46 0 64 49q16 45 31 89q26 50 87 50q41 0 71 -27.5t30 -68.5z" />
<glyph unicode="&#xf2;" horiz-adv-x="1128" d="M96 0zM1126 807q0 -275 -151 -522q-175 -285 -432 -285q-212 0 -336 186q-111 162 -111 384q0 287 112 512q142 282 400 282q245 0 385 -157q133 -151 133 -400zM927 814q0 347 -350 347q-121 0 -210 -243q-72 -198 -72 -348q0 -241 142 -333q53 -34 101 -34 q169 0 286 229q103 196 103 382zM785 1560q0 -43 -29.5 -76t-72.5 -33q-46 0 -94 53q-39 44 -92 122q-65 96 -65 130q0 41 34 70t77 29q46 0 85 -48q157 -189 157 -247z" />
<glyph unicode="&#xf3;" horiz-adv-x="1128" d="M96 0zM1126 807q0 -275 -151 -522q-175 -285 -432 -285q-212 0 -336 186q-111 162 -111 384q0 287 112 512q142 282 400 282q245 0 385 -157q133 -151 133 -400zM927 814q0 347 -350 347q-121 0 -210 -243q-72 -198 -72 -348q0 -241 142 -333q53 -34 101 -34 q169 0 286 229q103 196 103 382zM978 1758q0 -34 -30 -77q-36 -49 -151 -177q-47 -53 -90 -53t-73.5 33t-30.5 76q0 34 83 140q74 92 117 130q34 29 70 29q42 0 73.5 -29t31.5 -72z" />
<glyph unicode="&#xf4;" horiz-adv-x="1128" d="M96 0zM1126 807q0 -275 -151 -522q-175 -285 -432 -285q-212 0 -336 186q-111 162 -111 384q0 287 112 512q142 282 400 282q245 0 385 -157q133 -151 133 -400zM927 814q0 347 -350 347q-121 0 -210 -243q-72 -198 -72 -348q0 -241 142 -333q53 -34 101 -34 q169 0 286 229q103 196 103 382zM1087 1560q0 -43 -29 -76t-72 -33q-37 0 -124 105q-55 70 -111 142q-10 -8 -115 -136q-85 -106 -114 -106q-43 0 -77 30t-34 70q0 77 127 202.5t204 125.5q80 0 176 -94q32 -32 137 -160q32 -39 32 -70z" />
<glyph unicode="&#xf5;" horiz-adv-x="1137" d="M96 0zM1126 807q0 -275 -151 -522q-175 -285 -432 -285q-212 0 -336 186q-111 162 -111 384q0 287 112 512q142 282 400 282q245 0 385 -157q133 -151 133 -400zM927 814q0 347 -350 347q-121 0 -210 -243q-72 -198 -72 -348q0 -241 142 -333q53 -34 101 -34 q169 0 286 229q103 196 103 382zM1226 1734q0 -125 -86.5 -204t-212.5 -79q-63 0 -104 49q-2 2 -58 94q-32 50 -68 50q-46 0 -88 -84.5t-69 -84.5q-41 0 -73.5 29t-32.5 68q0 109 72.5 180t183.5 71q84 0 133 -46q19 -19 60 -89q29 -46 60 -46q46 0 64 49q16 45 31 89 q26 50 87 50q41 0 71 -27.5t30 -68.5z" />
<glyph unicode="&#xf6;" horiz-adv-x="1138" d="M96 0zM1126 807q0 -275 -151 -522q-175 -285 -432 -285q-212 0 -336 186q-111 162 -111 384q0 287 112 512q142 282 400 282q245 0 385 -157q133 -151 133 -400zM927 814q0 347 -350 347q-121 0 -210 -243q-72 -198 -72 -348q0 -241 142 -333q53 -34 101 -34 q169 0 286 229q103 196 103 382zM1130 1596q0 -51 -30 -89.5t-80 -38.5q-51 0 -97 35t-46 84q0 46 49.5 90.5t95.5 44.5q108 0 108 -126zM715 1579q0 -50 -36 -89t-85 -39q-48 0 -86.5 33t-38.5 79q0 55 27.5 95t80.5 40q49 0 93.5 -36t44.5 -83z" />
<glyph unicode="&#xf7;" horiz-adv-x="802" d="M500 894q0 -47 -31.5 -83t-77.5 -36q-53 0 -94 44.5t-41 96.5q0 45 42 82.5t88 37.5q53 0 83.5 -43.5t30.5 -98.5zM761 567q0 -45 -27 -74.5t-72 -29.5q-66 0 -196.5 -8t-197.5 -8q-195 0 -195 111q0 39 29 71.5t69 32.5q22 0 64.5 -2.5t64.5 -2.5q60 0 181 7.5t181 7.5 q45 0 72 -30.5t27 -74.5zM500 229q0 -50 -34 -87.5t-84 -37.5q-49 0 -83 34t-34 86q0 51 32 94.5t82 43.5q49 0 85 -41t36 -92z" />
<glyph unicode="&#xf8;" horiz-adv-x="1207" d="M1123 807q0 -275 -152 -522q-174 -285 -432 -285q-100 0 -186 46q-51 -118 -117 -118q-40 0 -72.5 26.5t-32.5 65.5q0 45 62 181q-101 161 -101 369q0 287 113 512q141 282 399 282q94 0 174 -24q60 128 125 128q39 0 69 -31.5t30 -71.5q0 -15 -51 -119 q172 -152 172 -439zM923 814q0 143 -68 232q-145 -297 -410 -817q43 -26 89 -26q169 0 287 229q102 196 102 382zM678 1150q-52 11 -105 11q-121 0 -209 -243q-72 -198 -72 -348q0 -70 13 -131q113 225 373 711z" />
<glyph unicode="&#xf9;" horiz-adv-x="1132" d="M111 0zM1027 1015q0 -411 -61 -631q-109 -384 -413 -384q-254 0 -365 270q-77 189 -77 488q0 433 53 534q39 73 99 73q41 0 70 -31.5t29 -72.5q0 -22 -26 -162q-22 -121 -22 -351q0 -192 41 -332q61 -216 201 -216q157 0 226 293q44 186 44 422q0 58 -10 172t-10 173 q0 42 26 73.5t69 31.5q65 0 99 -73q27 -58 27 -277zM788 1560q0 -43 -29.5 -76t-72.5 -33q-46 0 -94 53q-39 44 -92 122q-65 96 -65 130q0 41 34 70t77 29q46 0 85 -48q157 -189 157 -247z" />
<glyph unicode="&#xfa;" horiz-adv-x="1080" d="M111 0zM1027 1015q0 -411 -61 -631q-109 -384 -413 -384q-254 0 -365 270q-77 189 -77 488q0 433 53 534q39 73 99 73q41 0 70 -31.5t29 -72.5q0 -22 -26 -162q-22 -121 -22 -351q0 -192 41 -332q61 -216 201 -216q157 0 226 293q44 186 44 422q0 58 -10 172t-10 173 q0 42 26 73.5t69 31.5q65 0 99 -73q27 -58 27 -277zM911 1758q0 -34 -30 -77q-36 -49 -151 -177q-47 -53 -90 -53t-73.5 33t-30.5 76q0 34 83 140q74 92 117 130q34 29 70 29q42 0 73.5 -29t31.5 -72z" />
<glyph unicode="&#xfb;" horiz-adv-x="1080" d="M111 0zM1027 1015q0 -411 -61 -631q-109 -384 -413 -384q-254 0 -365 270q-77 189 -77 488q0 433 53 534q39 73 99 73q41 0 70 -31.5t29 -72.5q0 -22 -26 -162q-22 -121 -22 -351q0 -192 41 -332q61 -216 201 -216q157 0 226 293q44 186 44 422q0 58 -10 172t-10 173 q0 42 26 73.5t69 31.5q65 0 99 -73q27 -58 27 -277zM1041 1560q0 -43 -29 -76t-72 -33q-37 0 -124 105q-55 70 -111 142q-10 -8 -115 -136q-85 -106 -114 -106q-43 0 -77 30t-34 70q0 77 127 202.5t204 125.5q80 0 176 -94q32 -32 137 -160q32 -39 32 -70z" />
<glyph unicode="&#xfc;" horiz-adv-x="1082" d="M111 0zM1027 1015q0 -411 -61 -631q-109 -384 -413 -384q-254 0 -365 270q-77 189 -77 488q0 433 53 534q39 73 99 73q41 0 70 -31.5t29 -72.5q0 -22 -26 -162q-22 -121 -22 -351q0 -192 41 -332q61 -216 201 -216q157 0 226 293q44 186 44 422q0 58 -10 172t-10 173 q0 42 26 73.5t69 31.5q65 0 99 -73q27 -58 27 -277zM1098 1596q0 -51 -30 -89.5t-80 -38.5q-51 0 -97 35t-46 84q0 46 49.5 90.5t95.5 44.5q108 0 108 -126zM683 1579q0 -50 -36 -89t-85 -39q-48 0 -86.5 33t-38.5 79q0 55 27.5 95t80.5 40q49 0 93.5 -36t44.5 -83z" />
<glyph unicode="&#xfd;" horiz-adv-x="1161" d="M68 0zM1039 983q0 -340 -41 -509q-68 -281 -271 -414q-90 -60 -193 -60q-42 0 -73 26.5t-31 69.5q0 68 58 93q58 16 114 33q207 82 207 522q-106 -237 -321 -237q-256 0 -355 261q-65 171 -65 478q0 119 101 119q87 0 106 -134q10 -137 22 -275q22 -169 113 -226 q37 -23 66 -23q38 0 87 27q89 48 154 181q53 107 77 232q5 39 25 113q29 71 94 71q72 0 102 -97q24 -75 24 -251zM884 1758q0 -34 -30 -77q-36 -49 -151 -177q-47 -53 -90 -53t-73.5 33t-30.5 76q0 34 83 140q74 92 117 130q34 29 70 29q42 0 73.5 -29t31.5 -72z" />
<glyph unicode="&#xfe;" horiz-adv-x="1135" d="M1104 835q0 -210 -244 -374q-193 -130 -438 -181q-4 -34 -6 -99q-3 -89 -15 -121q-22 -60 -94 -60q-41 0 -70 30t-29 71q0 157 19 437q19 309 19 437q-57 34 -57 98q0 59 57 82q-2 86 -2 108q0 44 30.5 73t75.5 29q44 0 73 -29t29 -73q0 -22 -1 -70q49 2 81 2 q221 0 373 -72q199 -94 199 -288zM903 840q0 88 -161 128q-102 24 -233 24q-31 0 -60 -2q-2 -198 -2 -500q150 46 277 119q179 108 179 231z" />
<glyph unicode="&#xff;" horiz-adv-x="1118" d="M68 0zM1039 983q0 -340 -41 -509q-68 -281 -271 -414q-90 -60 -193 -60q-42 0 -73 26.5t-31 69.5q0 68 58 93q58 16 114 33q207 82 207 522q-106 -237 -321 -237q-256 0 -355 261q-65 171 -65 478q0 119 101 119q87 0 106 -134q10 -137 22 -275q22 -169 113 -226 q37 -23 66 -23q38 0 87 27q89 48 154 181q53 107 77 232q5 39 25 113q29 71 94 71q72 0 102 -97q24 -75 24 -251zM1089 1596q0 -51 -30 -89.5t-80 -38.5q-51 0 -97 35t-46 84q0 46 49.5 90.5t95.5 44.5q108 0 108 -126zM674 1579q0 -50 -36 -89t-85 -39q-48 0 -86.5 33 t-38.5 79q0 55 27.5 95t80.5 40q49 0 93.5 -36t44.5 -83z" />
<glyph unicode="&#x152;" horiz-adv-x="2055" d="M1847 1258q0 -38 -28.5 -68.5t-65.5 -30.5q-22 0 -67.5 3.5t-67.5 3.5q-101 0 -265 -34q-10 -123 -61 -291q213 82 292 82q42 0 71 -28t29 -69q0 -61 -73 -97q-26 -12 -128 -43q-53 -15 -259 -85q-48 -186 -48 -297q0 -89 66 -89q113 0 306 113q89 51 123 51q39 0 69 -29 t30 -70q0 -50 -46 -85q-22 -16 -91 -50q-99 -48 -196 -96q-116 -49 -212 -49q-179 0 -228 162q-152 -162 -337 -162q-213 0 -339 184q-111 164 -111 386q0 266 123 505q148 290 389 290q293 0 428 -206q9 29 9 58q0 60 72 92q122 56 419 56q197 0 197 -107zM1044 814 q0 133 -76 239q-86 116 -214 116q-121 0 -235 -193q-103 -174 -103 -305q0 -470 238 -470q167 0 288 231q102 196 102 382z" />
<glyph unicode="&#x153;" horiz-adv-x="2055" d="M1847 1258q0 -38 -28.5 -68.5t-65.5 -30.5q-22 0 -67.5 3.5t-67.5 3.5q-101 0 -265 -34q-10 -123 -61 -291q213 82 292 82q42 0 71 -28t29 -69q0 -61 -73 -97q-26 -12 -128 -43q-53 -15 -259 -85q-48 -186 -48 -297q0 -89 66 -89q113 0 306 113q89 51 123 51q39 0 69 -29 t30 -70q0 -50 -46 -85q-22 -16 -91 -50q-99 -48 -196 -96q-116 -49 -212 -49q-179 0 -228 162q-152 -162 -337 -162q-213 0 -339 184q-111 164 -111 386q0 266 123 505q148 290 389 290q293 0 428 -206q9 29 9 58q0 60 72 92q122 56 419 56q197 0 197 -107zM1044 814 q0 133 -76 239q-86 116 -214 116q-121 0 -235 -193q-103 -174 -103 -305q0 -470 238 -470q167 0 288 231q102 196 102 382z" />
<glyph unicode="&#x178;" horiz-adv-x="1118" d="M68 0zM1039 983q0 -340 -41 -509q-68 -281 -271 -414q-90 -60 -193 -60q-42 0 -73 26.5t-31 69.5q0 68 58 93q58 16 114 33q207 82 207 522q-106 -237 -321 -237q-256 0 -355 261q-65 171 -65 478q0 119 101 119q87 0 106 -134q10 -137 22 -275q22 -169 113 -226 q37 -23 66 -23q38 0 87 27q89 48 154 181q53 107 77 232q5 39 25 113q29 71 94 71q72 0 102 -97q24 -75 24 -251zM1089 1596q0 -51 -30 -89.5t-80 -38.5q-51 0 -97 35t-46 84q0 46 49.5 90.5t95.5 44.5q108 0 108 -126zM674 1579q0 -50 -36 -89t-85 -39q-48 0 -86.5 33 t-38.5 79q0 55 27.5 95t80.5 40q49 0 93.5 -36t44.5 -83z" />
<glyph unicode="&#x2c6;" horiz-adv-x="939" d="M809 1560q0 -43 -29 -76t-72 -33q-37 0 -124 105q-55 70 -111 142q-10 -8 -115 -136q-85 -106 -114 -106q-43 0 -77 30t-34 70q0 77 127 202.5t204 125.5q80 0 176 -94q32 -32 137 -160q32 -39 32 -70z" />
<glyph unicode="&#x2da;" horiz-adv-x="986" d="M831 1746q0 -131 -102 -215q-96 -80 -229 -80q-131 0 -239 88q-113 94 -113 224q0 119 96.5 213t216.5 94q148 0 256 -85q114 -94 114 -239zM623 1741q0 58 -48.5 90.5t-108.5 32.5q-36 0 -72 -31.5t-36 -67.5q0 -55 37.5 -89t94.5 -34q44 0 88.5 28t44.5 71z" />
<glyph unicode="&#x2dc;" horiz-adv-x="1138" d="M961 1734q0 -125 -86.5 -204t-212.5 -79q-63 0 -104 49q-2 2 -58 94q-32 50 -68 50q-46 0 -88 -84.5t-69 -84.5q-41 0 -73.5 29t-32.5 68q0 109 72.5 180t183.5 71q84 0 133 -46q19 -19 60 -89q29 -46 60 -46q46 0 64 49q16 45 31 89q26 50 87 50q41 0 71 -27.5t30 -68.5 z" />
<glyph unicode="&#x2000;" horiz-adv-x="1035" />
<glyph unicode="&#x2001;" horiz-adv-x="2070" />
<glyph unicode="&#x2002;" horiz-adv-x="1035" />
<glyph unicode="&#x2003;" horiz-adv-x="2070" />
<glyph unicode="&#x2004;" horiz-adv-x="690" />
<glyph unicode="&#x2005;" horiz-adv-x="517" />
<glyph unicode="&#x2006;" horiz-adv-x="345" />
<glyph unicode="&#x2007;" horiz-adv-x="345" />
<glyph unicode="&#x2008;" horiz-adv-x="258" />
<glyph unicode="&#x2009;" horiz-adv-x="414" />
<glyph unicode="&#x200a;" horiz-adv-x="115" />
<glyph unicode="&#x2010;" horiz-adv-x="1072" d="M877 567q0 -45 -28 -74.5t-72 -29.5q-65 0 -196.5 -8t-196.5 -8q-195 0 -195 111q0 39 29 71.5t69 32.5q22 0 64 -2.5t64 -2.5q59 0 180.5 7.5t181.5 7.5q44 0 72 -30.5t28 -74.5z" />
<glyph unicode="&#x2011;" horiz-adv-x="1072" d="M877 567q0 -45 -28 -74.5t-72 -29.5q-65 0 -196.5 -8t-196.5 -8q-195 0 -195 111q0 39 29 71.5t69 32.5q22 0 64 -2.5t64 -2.5q59 0 180.5 7.5t181.5 7.5q44 0 72 -30.5t28 -74.5z" />
<glyph unicode="&#x2012;" horiz-adv-x="1072" d="M877 567q0 -45 -28 -74.5t-72 -29.5q-65 0 -196.5 -8t-196.5 -8q-195 0 -195 111q0 39 29 71.5t69 32.5q22 0 64 -2.5t64 -2.5q59 0 180.5 7.5t181.5 7.5q44 0 72 -30.5t28 -74.5z" />
<glyph unicode="&#x2013;" horiz-adv-x="1072" d="M877 567q0 -45 -28 -74.5t-72 -29.5q-65 0 -196.5 -8t-196.5 -8q-195 0 -195 111q0 39 29 71.5t69 32.5q22 0 64 -2.5t64 -2.5q59 0 180.5 7.5t181.5 7.5q44 0 72 -30.5t28 -74.5z" />
<glyph unicode="&#x2014;" horiz-adv-x="1341" d="M1142 567q0 -45 -28.5 -74.5t-72.5 -29.5q-109 0 -325 -8t-325 -8q-195 0 -195 111q0 39 29 71.5t69 32.5q22 0 63.5 -2.5t64.5 -2.5q104 0 309.5 7.5t309.5 7.5q44 0 72.5 -30.5t28.5 -74.5z" />
<glyph unicode="&#x2018;" horiz-adv-x="522" d="M428 1063q0 -41 -35 -70.5t-77 -29.5q-57 0 -208 247q-18 27 -18 55q0 41 34.5 70.5t76.5 29.5q53 0 210 -251q17 -27 17 -51z" />
<glyph unicode="&#x2019;" horiz-adv-x="527" d="M418 1263q0 -34 -49 -138q-43 -92 -72 -133q-36 -52 -82 -52q-43 0 -77 32t-34 74q0 24 51 133q48 99 70 133q36 53 91 53q42 0 72 -29.5t30 -72.5z" />
<glyph unicode="&#x201a;" horiz-adv-x="527" d="M420 108q0 -35 -50 -139q-42 -92 -71 -133q-36 -51 -82 -51q-43 0 -77 31.5t-34 74.5q0 24 51 133q48 99 70 133q36 53 90 53q43 0 73 -30t30 -72z" />
<glyph unicode="&#x201c;" horiz-adv-x="1075" d="M922 1060q0 -43 -32 -76t-74 -33q-34 0 -70 30q-45 38 -109 128q-72 103 -72 144q0 42 35 74t78 32q44 0 80 -52q46 -59 136 -177q28 -36 28 -70zM486 1063q0 -41 -35 -70.5t-77 -29.5q-57 0 -208 247q-18 27 -18 55q0 41 34.5 70.5t76.5 29.5q53 0 210 -251 q17 -27 17 -51z" />
<glyph unicode="&#x201d;" horiz-adv-x="1024" d="M860 1263q0 -39 -51 -143q-46 -96 -79 -135q-41 -51 -90 -51q-43 0 -74.5 32t-31.5 75q0 21 16 50q35 64 105 198q38 76 101 76q41 0 72.5 -30.5t31.5 -71.5zM474 1263q0 -34 -49 -138q-43 -92 -72 -133q-36 -52 -82 -52q-42 0 -76.5 32t-34.5 74q0 24 52 133 q47 99 70 133q35 53 90 53q43 0 72.5 -29.5t29.5 -72.5z" />
<glyph unicode="&#x201e;" horiz-adv-x="1024" d="M860 109q0 -39 -51 -143q-46 -96 -79 -135q-41 -51 -90 -51q-43 0 -74.5 32.5t-31.5 74.5q0 21 16 50q35 65 105 198q38 77 101 77q41 0 72.5 -31t31.5 -72zM474 109q0 -34 -49 -138q-43 -92 -72 -133q-36 -51 -82 -51q-42 0 -76.5 31.5t-34.5 73.5q0 24 52 134 q47 99 70 133q35 53 90 53q43 0 72.5 -30t29.5 -73z" />
<glyph unicode="&#x2022;" horiz-adv-x="1079" d="M932 577q0 -142 -112 -241.5t-255 -99.5q-183 0 -293 107.5t-110 289.5q0 154 80 248q87 100 238 100q172 0 308 -114q144 -121 144 -290z" />
<glyph unicode="&#x2026;" horiz-adv-x="1493" d="M1319 130q0 -50 -35.5 -90t-85.5 -40q-48 0 -86.5 33.5t-38.5 79.5q0 54 26 92q29 44 82 44q50 0 94 -36t44 -83zM898 164q0 -51 -34.5 -89.5t-85.5 -38.5q-49 0 -91 35t-42 84q0 46 49.5 90.5t95.5 44.5q108 0 108 -126zM423 128q0 -51 -34 -89.5t-85 -38.5 q-50 0 -91.5 35t-41.5 84q0 47 49.5 91t95.5 44q107 0 107 -126z" />
<glyph unicode="&#x202f;" horiz-adv-x="414" />
<glyph unicode="&#x2039;" horiz-adv-x="957" d="M775 952q0 -66 -94 -140q-73 -51 -149 -102q-56 -38 -141 -111q51 -56 157 -116q133 -77 167 -102q51 -40 51 -82q0 -43 -29.5 -78t-72.5 -35q-19 0 -53 17q-437 213 -437 394q0 104 120 202l204 140q14 10 101 83q36 31 68 31q43 0 75.5 -29t32.5 -72z" />
<glyph unicode="&#x203a;" horiz-adv-x="858" d="M792 613q0 -113 -126 -219q-108 -80 -215 -158q-69 -57 -101 -57q-43 0 -74.5 33.5t-31.5 75.5q0 69 158.5 176.5t158.5 146.5q0 46 -139 104q-270 113 -270 217q0 43 30.5 73.5t73.5 30.5q31 0 90 -36q45 -29 87 -56q115 -63 227 -127q132 -88 132 -204z" />
<glyph unicode="&#x205f;" horiz-adv-x="517" />
<glyph unicode="&#x20ac;" horiz-adv-x="1615" d="M1446 1080q0 -41 -29 -69t-70 -28q-52 0 -84 45t-62 90q-46 46 -124 46q-99 0 -215 -84q-106 -75 -161 -170q198 24 311 24q39 0 69 -32t30 -71q0 -43 -30 -72.5t-74 -29.5t-213 -19q-36 -3 -186 -19q-26 -92 -26 -186q206 9 338 9q43 0 70 -28.5t27 -70.5q0 -75 -66 -96 q-31 -10 -127 -10h-193q81 -104 256 -104q117 0 379 65q21 5 28 5q41 0 70 -33.5t29 -74.5q0 -59 -74 -92q-174 -75 -437 -75q-165 0 -286 70q-133 77 -186 225q-152 -7 -239 -7q-41 0 -71 30t-30 71q0 111 208 111h55q34 -2 44 -2q0 79 21 174q-36 -1 -139 -1 q-88 0 -124 12q-65 22 -65 92q0 41 30 71t71 30q17 0 49 -2h50q100 0 191 8q85 209 235 338q169 145 377 145q117 0 217 -61q104 -67 144 -171q12 -32 12 -53z" />
<glyph unicode="&#x2122;" horiz-adv-x="1847" d="M1664 418q5 -89 -72 -89q-51 0 -71 48q-9 22 -19 92q-12 91 -46 232q-43 181 -53 233q-79 -306 -109 -466q-26 -139 -91 -139q-63 0 -94 108q-73 251 -129 527q-77 -322 -104 -495q-11 -66 -23 -92q-22 -48 -71 -48q-31 0 -51.5 23t-20.5 54q0 99 130 615q17 64 51 196 q17 65 29 89q25 47 73 47q65 0 87 -138q31 -189 113 -520q26 116 84 348q20 65 59 194q33 116 92 116q57 0 76 -73q3 -15 8 -90q5 -67 31 -195q3 -15 72 -285q42 -171 42 -287zM865 1287q0 -74 -107 -74q-80 0 -174 -6v-367q-11 -243 -11 -366q0 -145 -81 -145q-76 0 -76 72 v203q17 244 17 430v159q-160 -15 -218 -15q-72 0 -72 71q0 60 72 79q39 10 140 10q67 0 200 13.5t199 13.5q111 0 111 -78z" />
<glyph unicode="&#xe000;" horiz-adv-x="1365" d="M0 1365h1365v-1365h-1365v1365z" />
<glyph horiz-adv-x="1365" d="M0 0z" />
</font>
</defs>
</svg>
